Ссылка на приватное зеркало нашего сайта всего за 1$. Внимание количество ограничено!!!

2 сезон

iTunes

1 сезон

1

2 сезон

2 сезон

iTunes

1 сезон

RePack

30

Ultimate

ВАЖНО

ИГРА 18+

pack

RePack

MK11
pack

Забери бонус

RePack

jed

!!Акция!!

Alien_Rage

RePack

fifa19

RePack

Assassins Creed: Odyssey

RePack

NEED FOR SPEED™ PAYBACK

4 сезон

9 сезон

Бесстыжие 9 сезон

Все сериалы

все сериалы на PB.wtf

RePack

FAR CRY 5
  

Сумеречные охотники / Shadowhunters / Сезон: 1 / Серии 1-13 из 13 (Дж. Майлз Дэйл / J. Miles Dale, МакДжи / McG, Майрзи Алмас / Mairzee Almas) [2016, США, фэнтези, боевик, драма, WEB-DLRip-AVC] MVO [BaibaKo] pb.wtf

Сумеречные охотники через торрент pb.wtf

Качают: 1 [ 0 KB/s ]
Размер: 11.09 GB | Добавлен: 4 года 7 мес. назад | Торрент скачан:172 раза
Скачать  

16-01-2016 04:12 Сумеречные охотники Скачать торрент  

Сумеречные охотники / Shadowhunters
«Все легенды правдивы»


  • Год выпуска: 2016
  • Страна: США
  • Жанр: фэнтези, боевик, драма
  • Продолжительность: 00:41:24 (Серия)
  • Перевод: Профессиональный многоголосый закадровый [BaibaKo]

  • Режиссер: Дж. Майлз Дэйл / J. Miles Dale, МакДжи / McG, Майрзи Алмас / Mairzee Almas
  • В ролях:

    Кэтрин МакНамара (Clary Fray), Доминик Шервуд (Jace Wayland), Альберто Розенде (Simon Lewis), Emeraude Toubia (Isabelle Lightwood), Мэттью Даддарио (Alec Lightwood), Гарри Шам мл. (Magnus Bane), Айзая Мустафа (Luke Garroway), Алан Ван Спрэнг (Valentine Morgenstern), Стивен Р. Харт (Brother Jeremiah), Джоэль Лабелль (Alaric), Джон Кор (Hodge Starkweather), Стефани Беннетт (Lydia Branwell)


  • Невзрачная и ничем не примечательная девушка Клэри Фрэй в свой 18-й день рождения узнает, что она является наследницей древнего семейства Сумеречных Охотников - таинственного клана полулюдей-полуангелов, которые обороняют мир от демонических тварей. После похищения матери девушка вместе со своим другом Саймоном и сумеречным охотником Джейсом пытается ее спасти и... попадает в другую реальность.
  • Рейтинг:



  • Качество: WEB-DLRip-AVC
  • Формат: :MPEG-4
  • Видео кодек: AVC
  • Аудио кодек: AC3
  • Видео: 2200 Кбит/сек, 1024*576 (16:9), в 23,976 кадра/сек, AVC
  • Аудио №1: русский 384 Кбит/сек, 48,0 КГц, 16 бит, 6 каналов, AC-3 |[BaibaKo]|
  • Аудио №2: английский 384 Кбит/сек, 48,0 КГц, 16 бит, 6 каналов, AC-3
  • Релиз от: GEKADOL

    Код:

    Внимание! Раздача ведётся путём добавления новых серий; при каждом добавлении создаётся новый торрент. Чтобы начать докачку новой серии, пользователям необходимо сделать следующее:
    (1) остановить скачивание,
    (2) удалить старый торрент у себя из клиента (старые серии удалять не надо),
    (3) скачать новый торрент и запустить его у себя в клиенте вместо старого, при этом указать клиенту путь в старую папку куда и должно происходить скачивание новых серий.
    Ваш клиент при этом должен произвести хеширование (проверку) старой папки (если не производит сам - помогите ему сделать это), и будет докачивать только те серии которых у вас ещё нет. Старые серии при этом не удаляются, а продолжают раздаваться!
    Eсли вы уже удалили старые серии, то предотвратить повторную закачку старых серий можно, отжав галочку в соответствующих местах при запуске нового торрента. По возможности, желательно не удалять старые серии как можно дольше чтобы релизёр не столько продолжал раздавать старые серии, а смог сконцентрироваться на новых.


    Код:

    Общее
    Полное имя                               : H:\Сумеречные охотники\Shadowhunters.s01e01.WEB-DLRip-AVC.Rus.Eng.BaibaKo.tv.mp4
    Формат                                   : MPEG-4
    Профиль формата                          : Base Media
    Идентификатор кодека                     : isom
    Размер файла                             : 819 Мбайт
    Продолжительность                        : 39 м.
    Общий поток                              : 2869 Кбит/сек
    Программа кодирования                    : XviD4PSP 7.0.196
    encoding_info                            : MATROSKA / WEBM > MP4 / H264 > X264 CBR 2200kbps HQ / AC3 > AC3 CBR 384kbps / AC3 > AC3 CBR 384kbps

    Видео
    Идентификатор                            : 1
    Формат                                   : AVC
    Формат/Информация                        : Advanced Video Codec
    Профиль формата                          : High@L3.1
    Параметр CABAC формата                   : Да
    Параметр ReFrames формата                : 4 кадра
    Идентификатор кодека                     : avc1
    Идентификатор кодека/Информация          : Advanced Video Coding
    Продолжительность                        : 39 м.
    Битрейт                                  : 2200 Кбит/сек
    Ширина                                   : 1024 пикселя
    Высота                                   : 576 пикселей
    Соотношение сторон                       : 16:9
    Режим частоты кадров                     : Постоянный
    Частота кадров                           : 23,976 кадра/сек
    Цветовое пространство                    : YUV
    Субдискретизация насыщенности            : 4:2:0
    Битовая глубина                          : 8 бит
    Тип развёртки                            : Прогрессивная
    Бит/(Пиксели*Кадры)                      : 0.156
    Размер потока                            : 598 Мбайт (73%)
    Библиотека кодирования                   : x264 core 148 r2638M 7599210
    Настройки программы                      : cabac=1 / ref=3 / deblock=1:-1:-1 / analyse=0x3:0x133 / me=hex / subme=7 / psy=1 / psy_rd=1.00:0.20 / mixed_ref=1 / me_range=16 / chroma_me=1 / trellis=1 / 8x8dct=1 / cqm=0 / deadzone=21,11 / fast_pskip=1 / chroma_qp_offset=-3 / threads=5 / lookahead_threads=1 / sliced_threads=0 / nr=0 / decimate=1 / interlaced=0 / bluray_compat=0 / constrained_intra=0 / bframes=3 / b_pyramid=2 / b_adapt=2 / b_bias=0 / direct=3 / weightb=1 / open_gop=0 / weightp=2 / keyint=230 / keyint_min=23 / scenecut=40 / intra_refresh=0 / rc_lookahead=40 / rc=cbr / mbtree=1 / bitrate=2200 / ratetol=1.0 / qcomp=0.60 / qpmin=0 / qpmax=69 / qpstep=4 / vbv_maxrate=2200 / vbv_bufsize=2200 / nal_hrd=none / filler=0 / ip_ratio=1.40 / aq=1:1.00
    Цветовой диапазон                        : Limited
    Основные цвета                           : BT.709
    Характеристики трансфера                 : BT.709
    Коэффициенты матрицы                     : BT.709

    Аудио #1
    Идентификатор                            : 2
    Формат                                   : AC-3
    Формат/Информация                        : Audio Coding 3
    Расширение режима                        : CM (complete main)
    Параметр Endianness формата              : Big
    Идентификатор кодека                     : ac-3
    Продолжительность                        : 39 м.
    Вид битрейта                             : Постоянный
    Битрейт                                  : 384 Кбит/сек
    Каналы                                   : 6 каналов
    Расположение каналов                     : Front: L C R, Side: L R, LFE
    Частота                                  : 48,0 КГц
    Битовая глубина                          : 16 бит
    Метод сжатия                             : С потерями
    Размер потока                            : 110 Мбайт (13%)
    Язык                                     : Russian

    Аудио #2
    Идентификатор                            : 3
    Формат                                   : AC-3
    Формат/Информация                        : Audio Coding 3
    Расширение режима                        : CM (complete main)
    Параметр Endianness формата              : Big
    Идентификатор кодека                     : ac-3
    Продолжительность                        : 39 м.
    Вид битрейта                             : Постоянный
    Битрейт                                  : 384 Кбит/сек
    Каналы                                   : 6 каналов
    Расположение каналов                     : Front: L C R, Side: L R, LFE
    Частота                                  : 48,0 КГц
    Битовая глубина                          : 16 бит
    Метод сжатия                             : С потерями
    Размер потока                            : 110 Мбайт (13%)
    Язык                                     : English




    Скриншоты:
    скриншот   скриншот   скриншот   скриншот   скриншот   скриншот   скриншот  
    скриншот  

    Раздача ведётся путём добавления новых серий. Добавлена 13 серия (09.04.2016).Просьба перекачать торрент файл.

    pb.wtf



  • Скачать Сумеречные охотники через торрент http://i66.fastpic.ru/big/2016/0116/7a/af51addf71a944e899ce504cabca5e7a.jpg Скачать фильм Сумеречные охотники через торрент бесплантно в хорошем качестве qw.png Невзрачная и ничем не примечательная девушка Клэри Фрэй в свой 18-й день рождения узнает, что она является наследницей древнего ... 8.3 10 19
    Info! Золотая раздача, скачанное не засчитывается.
    Торрент: Зарегистрирован [2016-04-09 03:05] · скачан: 172 раз
    Статус: √ проверено
    Размер: 11.09 GB
    Как cкачать? Как скачать Сумеречные охотники через торрент | qTorrent

    % Раздел Тема Автор DL S | L
    Зарубежные сериалы [ 10.13 GB ] Сумеречные охотники / Shadowhunters / Сезон: 2 / Серии 1-13 из 20 [2017 WEBRip-AVC] MVO [BaibaKo] GEKADOL Скачать
    1 | 0
    Зарубежные сериалы [ 22.73 GB ] Сумеречные охотники / Shadowhunters / Сезон: 1 / Серия 1-13 из 13 [2016 WEB-DL 1080p] MVO BaibaKo MicroCharmelle Скачать
    1 | 0
    Зарубежные сериалы [ 18.47 GB ] Сумеречные охотники / Shadowhunters / Сезон: 1 / Серия 1-13 из 13 [2016 WEB-DL 720p] MVO BaibaKo MicroCharmelle Скачать
    1 | 0


    Последний раз редактировалось: GEKADOL (2016-04-09 03:05), всего редактировалось 8 раз(а)

    28-11-2019 20:33  

    Отключить всю рекламу на сайте

    14-02-2016 13:37 Сумеречные охотники Скачать торрент  

    Решил что МасДжи говна не снимает. Ошибся.
    Уныло, скучно, вяло, глупо и голимо. Вот как можно описать увиденное.pb.wtf



    24-02-2016 14:43 Сумеречные охотники Скачать торрент  

    не впечатляет.но на безрыбье сойдет,время убить.pb.wtf



    09-04-2016 04:57 Сумеречные охотники Скачать торрент  

    Посмотрю весь сезон,надо заценить)pb.wtf



    09-04-2016 10:50 Сумеречные охотники Скачать торрент  

    Чет, как то не зацепило!pb.wtf



      Дорогой пользователь! Огромная просьба, поблагодарите релизера, оцените раздачу и оставьте свои комментарий, если Вы скачали Сумеречные охотники через торрент бесплатно! Внесите свою лепту в развитие PiratBit!
      Комментировать посты могут только пользователи прошедшие не сложную регистрацию
      Показать сообщения:    

      Сумеречные охотники через торрент
      Скачать бесплатно Сумеречные охотники
      Сумеречные охотники скачать торрент
      Сумеречные охотники смотреть онлайн
      Cкачать фильм Сумеречные охотники бесплатно
      Сумеречные охотники скачать торрент в хорошем качестве
      Сумеречные охотники смотреть онлайн бесплатно в хорошем качестве


      Вы не можете начинать темы
      Вы не можете отвечать на сообщения
      Вы не можете редактировать свои сообщения
      Вы не можете удалять свои сообщения
      Вы не можете голосовать в опросах
      Вы не можете прикреплять файлы к сообщениям
      Вы можете скачивать файлы