Ссылка на приватное зеркало нашего сайта всего за 1$. Внимание количество ограничено!!!

2 сезон

iTunes

1 сезон

1

iTunes

iTunes

iTunes

1 сезон

RePack

30

ИГРА 18+

pack

ВАЖНО

!!Акция!!

Alien_RageХит недели

RePack

MK11
pack

Забери бонус

RePack

jed

!!Акция!!

Alien_Rage

RePack

fifa19

RePack

Assassins Creed: Odyssey

RePack

NEED FOR SPEED™ PAYBACK

4 сезон

9 сезон

Бесстыжие 9 сезон

Все сериалы

все сериалы на PB.wtf

RePack

FAR CRY 5
  

Паршивая овца / Black Sheep (Джонатан Кинг) [2006, ужасы, фантастика, комедия, BDRip 1080p от еnvy / NNNB] DUB pb.wtf

Паршивая овца через торрент pb.wtf

Размер: 4.37 GB | Добавлен: 4 года 9 мес. назад | Торрент скачан:60 раз
Скачать  

16-01-2016 17:18 Паршивая овца Скачать торрент  

Информация о фильме

Русское название: Паршивая овца
Оригинальное название: Black Sheep
Год выхода: 2006
Жанр: ужасы, фантастика, комедия
Режиссер: Джонатан Кинг
Выпущено: Новая Зеландия
Продолжительность: 01:26:26
Перевод: Дублированный
В ролях: Натан Майстер, Питер Вини, Даниэль Мэйсон, Тэмми Дэвис, Оливер Драйвер, Тэнди Райт, Гленис Левестам, Ник Блейк, Мэттью Чемберлен, Ник Фентон




Сюжет фильма

Генри Олдфилд, панически боящийся овец и проходящий курс лечения, возвращается на ферму своего отца, чтобы продать дело своему старшему брату Ангусу. Он не знает, что на ферме происходит нечто оооочень страшное: Ангус безрассудно запустил программу генной инженерии.
Когда два ярых поборника защиты окружающей среды — не ведая что творят — выпускают мутанта-ягненка из лаборатории Ангуса на ферму, тысячи овец превращаются в кровожадных хищников. Вместе с помощником на ферме Такером и новоприбывшей девушкой Экспириенс Генри оказывается в самом сердце фермы как раз в то время, когда его самый страшный ночной кошмар становится явью.
Пробивая себе путь к безопасному месту, отважная троица обнаруживает, что худшее впереди: оказывается, что один укус инфицированной овцы странным и тревожным образом влияет на укушенных…




Файл

Качество: BDRip 1080p (исходник Blu-ray Disc Remux)
Контейнер: MKV (расширение файла)
Видео: 1920x814, 6154 Кбит/сек, 24,000 кадр/сек, AVC, x264, High@L4.1, 2.35:1, 0.164 Бит/[Пиксели*Кадры]
Аудио 1: AC-3, 448 Кбит/сек, 6 канала(ов), 48,0 КГц - Дублированный / Русский
Аудио 2: AC-3, 640 Кбит/сек, 6 канала(ов), 48,0 КГц - Оригинал / Английский
Субтитры: Русские | Полные, Английские | Полные
Форсированные субтитры: Нет
Чаптеры (Главы): Есть









Автор Рипа: Сообщество:


Код:

Format                      : Matroska
Format version              : Version 2
File size                   : 4.37 GiB
Duration                    : 1h 26mn
Overall bit rate            : 7 237 Kbps
Movie name                  : Паршивая овца.(2006).BDRip.1080p.[envy]
Encoded date                : UTC 2016-01-16 16:15:24
Writing application         : mkvmerge v5.8.0 ('No Sleep / Pillow') built on Sep  2 2012 15:37:04
Writing library             : libebml v1.2.3 + libmatroska v1.3.0

Video
ID                          : 1
Format                      : AVC
Format/Info                 : Advanced Video Codec
Format profile              : High@L4.1
Format settings, CABAC      : Yes
Format settings, ReFrames   : 5 frames
Codec ID                    : V_MPEG4/ISO/AVC
Duration                    : 1h 26mn
Bit rate                    : 6 154 Kbps
Width                       : 1 920 pixels
Height                      : 814 pixels
Display aspect ratio        : 2.35:1
Frame rate mode             : Constant
Frame rate                  : 24.000 fps
Color space                 : YUV
Chroma subsampling          : 4:2:0
Bit depth                   : 8 bits
Scan type                   : Progressive
Bits/(Pixel*Frame)          : 0.164
Stream size                 : 3.63 GiB (83%)
Title                       : Паршивая овца.(2006).BDRip.1080p.[envy]
Writing library             : x264 core 148 r2638 7599210
Encoding settings           : cabac=1 / ref=5 / deblock=1:-3:-3 / analyse=0x3:0x133 / me=umh / subme=11 / psy=1 / psy_rd=1.00:0.00 / mixed_ref=1 / me_range=48 / chroma_me=1 / trellis=2 / 8x8dct=1 / cqm=0 / deadzone=21,11 / fast_pskip=0 / chroma_qp_offset=-2 / threads=12 / lookahead_threads=1 / sliced_threads=0 / nr=0 / decimate=1 / interlaced=0 / bluray_compat=0 / constrained_intra=0 / bframes=6 / b_pyramid=2 / b_adapt=2 / b_bias=0 / direct=3 / weightb=1 / open_gop=0 / weightp=2 / keyint=240 / keyint_min=23 / scenecut=40 / intra_refresh=0 / rc=2pass / mbtree=0 / bitrate=6154 / ratetol=2.0 / qcomp=0.60 / qpmin=0 / qpmax=69 / qpstep=4 / cplxblur=20.0 / qblur=0.5 / ip_ratio=1.40 / pb_ratio=1.30 / aq=2:0.90
Language                    : English
Default                     : Yes
Forced                      : No

Audio #1
ID                          : 2
Format                      : AC-3
Format/Info                 : Audio Coding 3
Mode extension              : CM (complete main)
Format settings, Endianness : Big
Codec ID                    : A_AC3
Duration                    : 1h 26mn
Bit rate mode               : Constant
Bit rate                    : 448 Kbps
Channel(s)                  : 6 channels
Channel positions           : Front: L C R, Side: L R, LFE
Sampling rate               : 48.0 KHz
Compression mode            : Lossy
Stream size                 : 277 MiB (6%)
Title                       : Dub
Language                    : Russian
Default                     : Yes
Forced                      : No

Audio #2
ID                          : 3
Format                      : AC-3
Format/Info                 : Audio Coding 3
Mode extension              : CM (complete main)
Format settings, Endianness : Big
Codec ID                    : A_AC3
Duration                    : 1h 26mn
Bit rate mode               : Constant
Bit rate                    : 640 Kbps
Channel(s)                  : 6 channels
Channel positions           : Front: L C R, Side: L R, LFE
Sampling rate               : 48.0 KHz
Compression mode            : Lossy
Stream size                 : 396 MiB (9%)
Title                       : Eng
Language                    : English
Default                     : No
Forced                      : No

Text #1
ID                          : 4
Format                      : UTF-8
Codec ID                    : S_TEXT/UTF8
Codec ID/Info               : UTF-8 Plain Text
Title                       : Rus full
Language                    : Russian
Default                     : No
Forced                      : No

Text #2
ID                          : 5
Format                      : UTF-8
Codec ID                    : S_TEXT/UTF8
Codec ID/Info               : UTF-8 Plain Text
Title                       : Eng full
Language                    : English
Default                     : No
Forced                      : No

Menu
00:00:00.000                : en:Farm Life
00:04:59.292                : en:Oldfield
00:11:37.125                : en:Bio-Hazard
00:15:09.625                : en:Once-Bitten
00:21:55.583                : en:Ovinophobia
00:26:17.792                : en:Getting Grounded
00:31:47.833                : en:Frankensheep
00:36:53.542                : en:Revolting Sheep
00:42:07.417                : en:In the Pit
00:49:36.458                : en:Mutation
00:56:59.000                : en:The Calling
01:02:45.000                : en:Animal Husbandry
01:08:34.333                : en:I am a Sheep
01:13:11.500                : en:The Showdown
01:18:41.833                : en:Drenched
01:23:52.208                : en:End Credits


pb.wtf



Скачать Паршивая овца через торрент http://6.firepic.org/6/images/2016-01/16/eju7jpqsas96.png Скачать фильм Паршивая овца через торрент бесплантно в хорошем качестве В ролях: Натан Майстер, Питер Вини, Даниэль Мэйсон, Тэмми Дэвис, Оливер Драйвер, Тэнди Райт, Гленис Левестам, Ник Блейк, Мэттью Чемберлен, ... 10 10 2
Info! Золотая раздача, скачанное не засчитывается.
Торрент: Зарегистрирован [2016-01-16 17:18] · скачан: 60 раз
Статус: √ проверено
Размер: 4.37 GB
Как cкачать? Как скачать Паршивая овца через торрент | qTorrent



Последний раз редактировалось: еnvy (2016-01-16 18:02), всего редактировалось 1 раз

28-11-2019 20:33  

Отключить всю рекламу на сайте

16-01-2016 17:44 Паршивая овца Скачать торрент  

и в каком месте этот фильм Скорсезе?pb.wtf



16-01-2016 18:02 Паршивая овца Скачать торрент  

kpuctaluk, Спасибо, исправил)pb.wtf



    Дорогой пользователь! Огромная просьба, поблагодарите релизера, оцените раздачу и оставьте свои комментарий, если Вы скачали Паршивая овца через торрент бесплатно! Внесите свою лепту в развитие PiratBit!
    Комментировать посты могут только пользователи прошедшие не сложную регистрацию
    Показать сообщения:    

    Паршивая овца через торрент
    Скачать бесплатно Паршивая овца
    Паршивая овца скачать торрент
    Паршивая овца смотреть онлайн
    Cкачать фильм Паршивая овца бесплатно
    Паршивая овца скачать торрент в хорошем качестве
    Паршивая овца смотреть онлайн бесплатно в хорошем качестве


    Вы не можете начинать темы
    Вы не можете отвечать на сообщения
    Вы не можете редактировать свои сообщения
    Вы не можете удалять свои сообщения
    Вы не можете голосовать в опросах
    Вы не можете прикреплять файлы к сообщениям
    Вы можете скачивать файлы