Ссылка на приватное зеркало нашего сайта всего за 1$. Внимание количество ограничено!!!

2 сезон

iTunes

1 сезон

1

2 сезон

2 сезон

iTunes

1 сезон

RePack

30

Ultimate

ВАЖНО

ИГРА 18+

pack

RePack

MK11
pack

Забери бонус

RePack

jed

!!Акция!!

Alien_Rage

RePack

fifa19

RePack

Assassins Creed: Odyssey

RePack

NEED FOR SPEED™ PAYBACK

4 сезон

9 сезон

Бесстыжие 9 сезон

Все сериалы

все сериалы на PB.wtf

RePack

FAR CRY 5
  

Анестезия / Anesthesia (Тим Блейк Нельсон) [2015, триллер, драма, WEB-DLRip, Любительский двухголосый [Parovoz Production] pb.wtf

Анестезия через торрент pb.wtf

Размер: 1.37 GB | Добавлен: 4 года 10 мес. назад | Торрент скачан:74 раза
Скачать  

16-01-2016 20:13 Анестезия Скачать торрент  


Анестезия / Anesthesia
««Who we don't know can save us»»

ИНФОРМАЦИЯ:
Год выпуска:2015
Страна: США
Жанр: триллер, драма
Продолжительность: 01:29:49
Перевод: Любительский двухголосый [Parovoz Production]
Режиссер: Тим Блейк Нельсон

В Ролях:


Дэвид Аарон Бэйкер (Devlin), Деррик Баскин (Medical Examiner), Жаклин Баум (Allie), Ана Мари Кэлайз (Student), Дж. Бернард Кэллоуэй (Cedar Lemons), Кэти Чанг (Amy), Эрика Чо (Teacher), Гленн Клоуз (Marcia Zarrow), Скотт Коэн (Dr. Laffer), Филип Эттинджер (Roger), К. Тодд Фриман (Joe), Иван Горис (Ignacio)

Описание:
В результате нападения на профессора философии Колумбийского университета пересекаются жизни нескольких людей...

  • Мировая премьера:22 апреля 2015

    ТЕХ.ДАННЫЕ:
    Качество: WEB-DLRip
    Формат: AVI
    Видео: XviD, 720x384 (1.875), 1892 kbps, 23,976 fps, 0,286 bpp
    Аудио: AC3 / 2.0 / 48 kHz / 192 kbps / 16 bit


    General
    Complete name : D:\Торенты\AneS3eZ1a.2015.L2.WEB-DLRip.1400MB.rustorrents.avi
    Format : AVI
    Format/Info : Audio Video Interleave
    File size : 1.37 GiB
    Duration : 1h 29mn
    Overall bit rate : 2 180 Kbps
    Writing application : VirtualDubMod 1.5.10.3 | www.virtualdub-fr.org || (build 2550/release)
    Writing library : VirtualDubMod build 2550/release

    Video
    ID : 0
    Format : MPEG-4 Visual
    Format profile : Advanced Simple@L5
    Format settings, BVOP : 2
    Format settings, QPel : No
    Format settings, GMC : No warppoints
    Format settings, Matrix : Default (MPEG)
    Codec ID : XVID
    Codec ID/Hint : XviD
    Duration : 1h 29mn
    Bit rate : 1 893 Kbps
    Width : 720 pixels
    Height : 384 pixels
    Display aspect ratio : 1.875
    Frame rate : 23.976 fps
    Color space : YUV
    Chroma subsampling : 4:2:0
    Bit depth : 8 bits
    Scan type : Progressive
    Compression mode : Lossy
    Bits/(Pixel*Frame) : 0.286
    Stream size : 1.19 GiB (87%)
    Writing library : XviD 1.2.1 (UTC 2008-12-04)

    Audio
    ID : 1
    Format : AC-3
    Format/Info : Audio Coding 3
    Mode extension : CM (complete main)
    Codec ID : 2000
    Duration : 1h 29mn
    Bit rate mode : Constant
    Bit rate : 192 Kbps
    Channel(s) : 2 channels
    Channel positions : Front: L R
    Sampling rate : 48.0 KHz
    Bit depth : 16 bits
    Compression mode : Lossy
    Stream size : 123 MiB (9%)
    Alignment : Split accross interleaves
    Скриншоты:

    © Оформление by .::Ворон::.
    pb.wtf
    !Ворон писал(а):

    Внимание, в релизе присутствует реклама казино. Что делать? ждать когда выложат релиз без этого (в них всегда указанно что релиз без рекламы) либо лицензию. Запретить такие темы нельзя, пока нет альтернативы.
    Реклама в новых релизах Кино?



  • Скачать Анестезия через торрент http://pic.kartinco.top/images/6/ordi9.jpg Скачать фильм Анестезия через торрент бесплантно в хорошем качестве Описание: В результате нападения на профессора философии Колумбийского университета пересекаются жизни нескольких людей... Мировая ... 10 10 5
    Торрент: Зарегистрирован [2016-01-16 20:13] · скачан: 74 раз
    Статус: T временная
    Размер: 1.37 GB
    Как cкачать? Как скачать Анестезия через торрент | qTorrent

    28-11-2019 20:33  

    Отключить всю рекламу на сайте

      Дорогой пользователь! Огромная просьба, поблагодарите релизера, оцените раздачу и оставьте свои комментарий, если Вы скачали Анестезия через торрент бесплатно! Внесите свою лепту в развитие PiratBit!
      Комментировать посты могут только пользователи прошедшие не сложную регистрацию
      Показать сообщения:    

      Анестезия через торрент
      Скачать бесплатно Анестезия
      Анестезия скачать торрент
      Анестезия смотреть онлайн
      Cкачать фильм Анестезия бесплатно
      Анестезия скачать торрент в хорошем качестве
      Анестезия смотреть онлайн бесплатно в хорошем качестве


      Вы не можете начинать темы
      Вы не можете отвечать на сообщения
      Вы не можете редактировать свои сообщения
      Вы не можете удалять свои сообщения
      Вы не можете голосовать в опросах
      Вы не можете прикреплять файлы к сообщениям
      Вы можете скачивать файлы