Ссылка на приватное зеркало нашего сайта всего за 1$. Внимание количество ограничено!!!

2 сезон

iTunes

1 сезон

1

2 сезон

2 сезон

iTunes

1 сезон

RePack

30

Новинка

ВАЖНО

ИГРА 18+

pack

RePack

MK11
pack

Забери бонус

RePack

jed

!!Акция!!

Alien_Rage

RePack

fifa19

RePack

Assassins Creed: Odyssey

RePack

NEED FOR SPEED™ PAYBACK

4 сезон

9 сезон

Бесстыжие 9 сезон

Все сериалы

все сериалы на PB.wtf

RePack

FAR CRY 5
  

Моцарт в джунглях / Mozart in the Jungle / Сезон: 2 / Серии 1-10 из 10 (Пол Вайц / Paul Weitz, Тришиа Брок / Tricia Brock, Адам Брукс / Adam Brooks) [2015, США, драма, комедия, музыка, WEB-DL 720p, MVO] [AlexFilm] pb.wtf

Моцарт в джунглях через торрент pb.wtf

Размер: 5.41 GB | Добавлен: 4 года 10 мес. назад | Торрент скачан:15 раз
Скачать  

17-01-2016 02:47 Моцарт в джунглях Скачать торрент  

Моцарт в джунглях / Mozart in the Jungle
«Секс, наркотики и классическая музыка»


  • Год выпуска: 2015
  • Страна: США
  • Жанр: драма, комедия, музыка
  • Продолжительность: 00:26:52 (Серия)
  • Перевод: Профессиональный многоголосый закадровый [AlexFilm]

  • Режиссер: Пол Вайц / Paul Weitz, Тришиа Брок / Tricia Brock, Адам Брукс / Adam Brooks
  • В ролях:

    Гаэль Гарсиа Берналь (Rodrigo), Лола Кёрк (Hailey), Саффрон Берроуз (Cynthia), Бернадетт Питерс (Gloria), Марк Блум (Union Bob), Ханна Данн (Lizzie), John Miller (Dee Dee), Малкольм МакДауэлл (Thomas), Joel Bernstein (Warren), Дебра Монк (Betty), Sandro Isaack (Pavel), Адам Дэвид Томпсон (Craig G)


  • Сериал рассказывает историю гобоистки Хэйли и её злоключений в Нью-Йорке. Будут и секс, и разнузданные вечеринки, и уроки игры на гобое, и соблазнительные танцоры балета, и чего только не будет. И всё это, разумеется, с классической музыкой фоном, и выступлениями в Нью-Йоркской Филармонии под руководством старого дирижёра Томаса, и нового дирижёра Родриго.
  • Рейтинг:



  • Качество: WEB-DL 720p
  • Формат: :MKV
  • Видео кодек: AVC
  • Аудио кодек: AC3
  • Видео: 1280x720 (16:9), 2586 kbps, 25 fps, 0,112 bpp
  • Аудио №1: русский / 2.0 / 48 kHz / 192 kbps / 16 bit |[AlexFilm]|
  • Аудио №2: английский / 2.0 / 48 kHz / 192 kbps / 16 bit
  • Релиз от: GEKADOL

    Код:

    General
    Unique ID                                : 212912860184616188073189095646990799460 (0xA02D8679E517F4989B8C176894799264)
    Complete name                            : H:\Mozart In The Jungle - Season 2 (AlexFilm) WEB-DL 720p\Mozart.in.the.Jungle.02e10.WEB-DLRip.720p.Rus.Eng.AlexFilm.mkv
    Format                                   : Matroska
    Format version                           : Version 4 / Version 2
    File size                                : 583 MiB
    Duration                                 : 26mn 52s
    Overall bit rate mode                    : Constant
    Overall bit rate                         : 3 031 Kbps
    Movie name                               : Mozart in the Jungle 2x10 @ AlexFilm
    Encoded date                             : UTC 2016-01-16 23:23:33
    Writing application                      : mkvmerge v7.1.0 ('Good Love') 64bit built on Jul 27 2014 13:06:55
    Writing library                          : libebml v1.3.0 + libmatroska v1.4.1

    Video
    ID                                       : 1
    Format                                   : AVC
    Format/Info                              : Advanced Video Codec
    Format profile                           : Main@L4.1
    Format settings, CABAC                   : Yes
    Format settings, ReFrames                : 2 frames
    Codec ID                                 : V_MPEG4/ISO/AVC
    Duration                                 : 26mn 52s
    Bit rate mode                            : Constant
    Bit rate                                 : 2 587 Kbps
    Nominal bit rate                         : 3 500 Kbps
    Width                                    : 1 280 pixels
    Height                                   : 720 pixels
    Display aspect ratio                     : 16:9
    Frame rate                               : 25.000 fps
    Color space                              : YUV
    Chroma subsampling                       : 4:2:0
    Bit depth                                : 8 bits
    Scan type                                : Progressive
    Bits/(Pixel*Frame)                       : 0.112
    Stream size                              : 497 MiB (85%)
    Default                                  : Yes
    Forced                                   : No

    Audio #1
    ID                                       : 2
    Format                                   : AC-3
    Format/Info                              : Audio Coding 3
    Mode extension                           : CM (complete main)
    Codec ID                                 : A_AC3
    Duration                                 : 26mn 52s
    Bit rate mode                            : Constant
    Bit rate                                 : 192 Kbps
    Channel(s)                               : 2 channels
    Channel positions                        : Front: L R
    Sampling rate                            : 48.0 KHz
    Bit depth                                : 16 bits
    Compression mode                         : Lossy
    Delay relative to video                  : -21ms
    Stream size                              : 36.9 MiB (6%)
    Title                                    : DD2.0 AlexFilm
    Language                                 : Russian
    Default                                  : Yes
    Forced                                   : No

    Audio #2
    ID                                       : 3
    Format                                   : AC-3
    Format/Info                              : Audio Coding 3
    Mode extension                           : CM (complete main)
    Codec ID                                 : A_AC3
    Duration                                 : 26mn 52s
    Bit rate mode                            : Constant
    Bit rate                                 : 192 Kbps
    Channel(s)                               : 2 channels
    Channel positions                        : Front: L R
    Sampling rate                            : 48.0 KHz
    Bit depth                                : 16 bits
    Compression mode                         : Lossy
    Delay relative to video                  : -21ms
    Stream size                              : 36.9 MiB (6%)
    Title                                    : DD2.0 Original
    Language                                 : English
    Default                                  : No
    Forced                                   : No




    Скриншоты:



    pb.wtf



  • Скачать Моцарт в джунглях через торрент http://i73.fastpic.ru/big/2016/0117/60/ef392a53a4e0d0bb9e73db5001460260.jpeg Скачать фильм Моцарт в джунглях через торрент бесплантно в хорошем качестве qw.png Сериал рассказывает историю гобоистки Хэйли и её злоключений в Нью-Йорке. Будут и секс, и разнузданные вечеринки, и уроки игры на ... 5 10 1
    Info! Золотая раздача, скачанное не засчитывается.
    Торрент: Зарегистрирован [2016-01-17 02:47] · скачан: 15 раз
    Статус: √ проверено
    Размер: 5.41 GB
    Как cкачать? Как скачать Моцарт в джунглях через торрент | qTorrent

    % Раздел Тема Автор DL S | L
    Зарубежные сериалы [ 3.15 GB ] Моцарт в джунглях / Mozart in the Jungle / Сезон: 2 / Серии 1-10 из 10 [2015 музыка WEB-DLRip MVO] [AlexFilm] GEKADOL Скачать
    1 | 0

    28-11-2019 20:33  

    Отключить всю рекламу на сайте

      Дорогой пользователь! Огромная просьба, поблагодарите релизера, оцените раздачу и оставьте свои комментарий, если Вы скачали Моцарт в джунглях через торрент бесплатно! Внесите свою лепту в развитие PiratBit!
      Комментировать посты могут только пользователи прошедшие не сложную регистрацию
      Показать сообщения:    

      Моцарт в джунглях через торрент
      Скачать бесплатно Моцарт в джунглях
      Моцарт в джунглях скачать торрент
      Моцарт в джунглях смотреть онлайн
      Cкачать фильм Моцарт в джунглях бесплатно
      Моцарт в джунглях скачать торрент в хорошем качестве
      Моцарт в джунглях смотреть онлайн бесплатно в хорошем качестве


      Вы не можете начинать темы
      Вы не можете отвечать на сообщения
      Вы не можете редактировать свои сообщения
      Вы не можете удалять свои сообщения
      Вы не можете голосовать в опросах
      Вы не можете прикреплять файлы к сообщениям
      Вы можете скачивать файлы