Ссылка на приватное зеркало нашего сайта всего за 1$. Внимание количество ограничено!!!

2 сезон

iTunes

1 сезон

1

iTunes

iTunes

iTunes

1 сезон

RePack

30

ИГРА 18+

pack

ВАЖНО

!!Акция!!

Alien_RageХит недели

RePack

MK11
pack

Забери бонус

RePack

jed

!!Акция!!

Alien_Rage

RePack

fifa19

RePack

Assassins Creed: Odyssey

RePack

NEED FOR SPEED™ PAYBACK

4 сезон

9 сезон

Бесстыжие 9 сезон

Все сериалы

все сериалы на PB.wtf

RePack

FAR CRY 5
  

Фрида / Frida (Джули Тэймор ) [2002, драма, мелодрама, биография, BDRip 1080p от _denis_100 / NNNB] DUB, DVO, AVO, Original + SUB (Rus, eng) pb.wtf

Фрида через торрент pb.wtf

Размер: 11.51 GB | Добавлен: 4 года 9 мес. назад | Торрент скачан:97 раз
Скачать  

17-01-2016 10:15 Фрида Скачать торрент  

Фрида / Frida
«Prepare to be seduced»


Год выпуска: 2002
Страна: США, Канада, Мексика
Жанр: драма, мелодрама, биография
Продолжительность: 02:02:56
Перевод: Дублированный, Профессиональный (двухголосый закадровый) [П.Гланц и И.Королева], Авторский (одноголосый закадровый)[Юрий Живов]
Субтитры: русские, английские (SDH)
Режиссер: Джули Тэймор
В ролях: Сальма Хайек , Альфред Молина , Валерия Голино , Эшли Джадд , Джеффри Раш , Эдвард Нортон , Саффрон Берроуз , Антонио Бандерас , Диего Луна , Патрисия Рейес Спиндола , Роджер Рис , Миа Маэстро
Описание:
Фриде было 20 лет, когда она вышла замуж за самого знаменитого художника Мексики Диего Риверу, немолодого, богатого и развратного. Пройдет всего несколько лет, и она завоюет Париж, а о его скандале с Рокфеллером напишут все американские газеты!
Их многочисленные любовные романы не помешают им покорить мир, а вот смогут ли они укротить друг друга?!..

R - Лицам до 17 лет обязательно присутствие взрослого
Качество: BDRip 1080p
Контейнер (Расширение): MKV
Видео: 1920x1040, 11300 Кбит/сек, 23,976 кадр/сек, 0,236 Бит/[Пиксели*Кадры]
Аудио №1: русский / AC3 / 5.1 / 48 kHz / 448 kbps / 16 bit |Дублированный, R5|
Аудио №2: русский / AC3 / 5.1 / 48 kHz / 640 kbps / 16 bit |Профессиональный (двухголосый закадровый) [П.Гланц и И.Королева]|
Аудио №3: русский / AC3 / 5.1 / 48 kHz / 384 kbps / 16 bit |Авторский (одноголосый закадровый), Юрий Живов|
Аудио №4: английский / AC3 / 5.1 / 48 kHz / 640 kbps / 16 bit
Навигация по главам(Чаптеры): естьАвтор рипа: Сообщество:

Код:

Format                                   : Matroska
Format version                           : Version 2
File size                                : 11.5 GiB
Duration                                 : 2h 2mn
Overall bit rate                         : 13.4 Mbps
Movie name                               : Frida.(2002).BDRip.1080p.[denis100]
Encoded date                             : UTC 2016-01-17 07:20:29
Writing application                      : mkvmerge v5.8.0 ('No Sleep / Pillow') built on Sep  2 2012 15:37:04
Writing library                          : libebml v1.2.3 + libmatroska v1.3.0

Video
ID                                       : 1
Format                                   : AVC
Format/Info                              : Advanced Video Codec
Format profile                           : High@L4.1
Format settings, CABAC                   : Yes
Format settings, ReFrames                : 4 frames
Codec ID                                 : V_MPEG4/ISO/AVC
Duration                                 : 2h 2mn
Bit rate                                 : 11.3 Mbps
Width                                    : 1 920 pixels
Height                                   : 1 040 pixels
Display aspect ratio                     : 16:9
Frame rate                               : 23.976 fps
Color space                              : YUV
Chroma subsampling                       : 4:2:0
Bit depth                                : 8 bits
Scan type                                : Progressive
Bits/(Pixel*Frame)                       : 0.236
Stream size                              : 9.47 GiB (82%)
Title                                    : Frida.(2002).BDRip.1080p.[denis100]
Writing library                          : x264 core 148 r2638 7599210
Encoding settings                        : cabac=1 / ref=4 / deblock=1:-3:-3 / analyse=0x3:0x133 / me=umh / subme=11 / psy=1 / psy_rd=1.00:0.15 / mixed_ref=1 / me_range=32 / chroma_me=1 / trellis=2 / 8x8dct=1 / cqm=0 / deadzone=21,11 / fast_pskip=0 / chroma_qp_offset=-3 / threads=6 / lookahead_threads=1 / sliced_threads=0 / nr=0 / decimate=1 / interlaced=0 / bluray_compat=0 / constrained_intra=0 / bframes=10 / b_pyramid=2 / b_adapt=2 / b_bias=0 / direct=3 / weightb=1 / open_gop=0 / weightp=2 / keyint=240 / keyint_min=23 / scenecut=40 / intra_refresh=0 / rc=2pass / mbtree=0 / bitrate=11300 / ratetol=1.0 / qcomp=0.60 / qpmin=0 / qpmax=69 / qpstep=4 / cplxblur=20.0 / qblur=0.5 / ip_ratio=1.40 / pb_ratio=1.30 / aq=1:0.90
Language                                 : English
Default                                  : Yes
Forced                                   : No

Audio #1
ID                                       : 2
Format                                   : AC-3
Format/Info                              : Audio Coding 3
Mode extension                           : CM (complete main)
Codec ID                                 : A_AC3
Duration                                 : 2h 2mn
Bit rate mode                            : Constant
Bit rate                                 : 448 Kbps
Channel(s)                               : 6 channels
Channel positions                        : Front: L C R, Side: L R, LFE
Sampling rate                            : 48.0 KHz
Bit depth                                : 16 bits
Compression mode                         : Lossy
Stream size                              : 394 MiB (3%)
Title                                    : Дубляж, R5
Language                                 : Russian
Default                                  : Yes
Forced                                   : No

Audio #2
ID                                       : 3
Format                                   : AC-3
Format/Info                              : Audio Coding 3
Mode extension                           : CM (complete main)
Codec ID                                 : A_AC3
Duration                                 : 2h 2mn
Bit rate mode                            : Constant
Bit rate                                 : 640 Kbps
Channel(s)                               : 6 channels
Channel positions                        : Front: L C R, Side: L R, LFE
Sampling rate                            : 48.0 KHz
Bit depth                                : 16 bits
Compression mode                         : Lossy
Stream size                              : 563 MiB (5%)
Title                                    : Двухголосый закадровый, П. Гланц и И. Королёва
Language                                 : Russian
Default                                  : No
Forced                                   : No

Audio #3
ID                                       : 4
Format                                   : AC-3
Format/Info                              : Audio Coding 3
Mode extension                           : CM (complete main)
Codec ID                                 : A_AC3
Duration                                 : 2h 2mn
Bit rate mode                            : Constant
Bit rate                                 : 384 Kbps
Channel(s)                               : 6 channels
Channel positions                        : Front: L C R, Side: L R, LFE
Sampling rate                            : 48.0 KHz
Bit depth                                : 16 bits
Compression mode                         : Lossy
Stream size                              : 338 MiB (3%)
Title                                    : Авторский, Юрий Живов
Language                                 : Russian
Default                                  : No
Forced                                   : No

Audio #4
ID                                       : 5
Format                                   : AC-3
Format/Info                              : Audio Coding 3
Mode extension                           : CM (complete main)
Codec ID                                 : A_AC3
Duration                                 : 2h 2mn
Bit rate mode                            : Constant
Bit rate                                 : 640 Kbps
Channel(s)                               : 6 channels
Channel positions                        : Front: L C R, Side: L R, LFE
Sampling rate                            : 48.0 KHz
Bit depth                                : 16 bits
Compression mode                         : Lossy
Stream size                              : 563 MiB (5%)
Language                                 : English
Default                                  : No
Forced                                   : No

Text #1
ID                                       : 6
Format                                   : UTF-8
Codec ID                                 : S_TEXT/UTF8
Codec ID/Info                            : UTF-8 Plain Text
Language                                 : Russian
Default                                  : No
Forced                                   : No

Text #2
ID                                       : 7
Format                                   : UTF-8
Codec ID                                 : S_TEXT/UTF8
Codec ID/Info                            : UTF-8 Plain Text
Title                                    : SDH
Language                                 : English
Default                                  : No
Forced                                   : No

Menu
00:00:00.000                             : en:00:00:00.000
00:05:06.848                             : en:00:05:06.848
00:08:06.736                             : en:00:08:06.736
00:12:26.496                             : en:00:12:26.496
00:21:05.306                             : en:00:21:05.306
00:25:57.514                             : en:00:25:57.514
00:33:00.312                             : en:00:33:00.312
00:39:12.267                             : en:00:39:12.267
00:45:26.974                             : en:00:45:26.974
00:49:10.781                             : en:00:49:10.781
00:53:56.191                             : en:00:53:56.191
00:59:37.407                             : en:00:59:37.407
01:07:02.936                             : en:01:07:02.936
01:11:54.852                             : en:01:11:54.852
01:21:22.878                             : en:01:21:22.878
01:26:39.611                             : en:01:26:39.611
01:33:19.344                             : en:01:33:19.344
01:37:33.264                             : en:01:37:33.264
01:41:24.453                             : en:01:41:24.453
01:45:16.894                             : en:01:45:16.894
01:51:30.684                             : en:01:51:30.684
01:56:20.473                             : en:01:56:20.473

x264 [info]: frame I:1079 Avg QP:15.72 size:211777
x264 [info]: frame P:39831 Avg QP:18.01 size: 90393
x264 [info]: frame B:135946 Avg QP:20.33 size: 48445
x264 [info]: consecutive B-frames: 1.9% 5.9% 10.3% 13.0% 13.8% 47.3% 4.6% 1.1% 0.8% 0.8% 0.6%
pb.wtf



Скачать Фрида через торрент http://i74.fastpic.ru/big/2016/0117/d7/0d1e814cc94665e18f5b0077591d61d7.png Скачать фильм Фрида через торрент бесплантно в хорошем качестве Описание:Фриде было 20 лет, когда она вышла замуж за самого знаменитого художника Мексики Диего Риверу, немолодого, богатого и развратного. ... 10 10 5
Info! Золотая раздача, скачанное не засчитывается.
Торрент: Зарегистрирован [2016-01-17 10:15] · скачан: 97 раз
Статус: √ проверено
Размер: 11.51 GB
Как cкачать? Как скачать Фрида через торрент | qTorrent

% Раздел Тема Автор DL S | L
T Фильмы (мультфильмы) cо спонсором показа (Новинки AVI/MKV) [ 4.2 GB ] Фрида: возвращение домой / Frieda - Coming Home / Frieda Coming Home [2020 WEB-DL 1080p] MVO [@MUZOBOZ@] bober100 Скачать
1 | 0
T Фильмы (мультфильмы) cо спонсором показа (Новинки AVI/MKV) [ 3.66 GB ] Фрида: возвращение домой / Frieda - Coming Home / Frieda Coming Home [2020 WEB-DL 720p] MVO [@MUZOBOZ@] bober100 Скачать
1 | 0
T Фильмы (мультфильмы) cо спонсором показа (Новинки AVI/MKV) [ 1.27 GB ] Фрида: возвращение домой / Frieda - Coming Home / Frieda Coming Home [2020 WEB-DLRip] MVO [@MUZOBOZ@] bober100 Скачать
3 | 0
Фильмы (DVD фильмы) [ 3.88 GB ] Мистер Рок-н-Ролл: История Алана Фрида / Mr. Rock 'n' Roll: The Alan Freed Story [1999 биография DVDRemux] + [MVO] killermax2013 Скачать
1 | 0
Фильмы [HD 720p, 1080p] (Хороший звук DUB, MVO) [ 16.69 GB ] Фрида / Frida [2002 биография BDRip 1080p by msltel] DUB DVO AVO msltel Скачать
1 | 0
Фильмы [HD 720p, 1080p] (Хороший звук DUB, MVO) [ 6.35 GB ] Фрида / Frida [2002 биография BDRip 720p by msltel] DUB DVO AVO msltel Скачать
1 | 0
Фильмы 2001-2005 [ 1.46 GB ] Фрида / Frida [2002 биография DVDRip] DUB -=Cherry=- Скачать
1 | 0

28-11-2019 20:33  

Отключить всю рекламу на сайте

    Дорогой пользователь! Огромная просьба, поблагодарите релизера, оцените раздачу и оставьте свои комментарий, если Вы скачали Фрида через торрент бесплатно! Внесите свою лепту в развитие PiratBit!
    Комментировать посты могут только пользователи прошедшие не сложную регистрацию
    Показать сообщения:    

    Фрида через торрент
    Скачать бесплатно Фрида
    Фрида скачать торрент
    Фрида смотреть онлайн
    Cкачать фильм Фрида бесплатно
    Фрида скачать торрент в хорошем качестве
    Фрида смотреть онлайн бесплатно в хорошем качестве


    Вы не можете начинать темы
    Вы не можете отвечать на сообщения
    Вы не можете редактировать свои сообщения
    Вы не можете удалять свои сообщения
    Вы не можете голосовать в опросах
    Вы не можете прикреплять файлы к сообщениям
    Вы можете скачивать файлы