Ссылка на приватное зеркало нашего сайта всего за 1$. Внимание количество ограничено!!!

2 сезон

iTunes

1 сезон

1

2 сезон

2 сезон

iTunes

1 сезон

RePack

30

Ultimate

ВАЖНО

ИГРА 18+

pack

RePack

MK11
pack

Забери бонус

RePack

jed

!!Акция!!

Alien_Rage

RePack

fifa19

RePack

Assassins Creed: Odyssey

RePack

NEED FOR SPEED™ PAYBACK

4 сезон

9 сезон

Бесстыжие 9 сезон

Все сериалы

все сериалы на PB.wtf

RePack

FAR CRY 5
  

Диккенсовщина / Dickensian / Сезон: 1 / Серии 1-20 из 20 (Гарри Брэдбир, Марк Брозел, Филиппа Лангдэйл) [2015 г., Драма, WEB-DL 1080p] MVO BaibaKo pb.wtf

Диккенсовщина через торрент pb.wtf

Размер: 24.72 GB | Добавлен: 4 года 8 мес. назад | Торрент скачан:7 раз
Скачать  

17-01-2016 16:48 Диккенсовщина Скачать торрент  

Диккенсовщина / Dickensian

Год выпуска: 2015
Страна: Великобритания
Жанр: Драма
Продолжительность: ~ 00:30:00 x 20
Перевод: Профессиональный (многоголосый, закадровый) BaibaKo
Реклама: В релизе присутствует реклама казино




Режиссер: Гарри Брэдбир, Марк Брозел, Филиппа Лангдэйл
Сценарий: Чарльз Диккенс, Тони Джордан, Сара Фелпс
Продюссер: Дэвид Болтер, Белинда Кэмпбелл, Полли Хилл
Оператор: Алан Элмонд
Композитор: Дэбби Вайсман
Художники: Майкл Ральф, Марк Хадсон, Андреа Галер
Монтаж: Ст. Джон О’Рорк, Ксавьер Расселл




Сезон : 1
Эпизод: 1-20 из 20




Премьера в мире: 26 декабря 2015
Бюджет: £20 000 000









В ролях:

Нед Деннехи, Александра Моэн, Бенжамин Кэмпбелл, Таппенс Мидлтон, Том Уэстон-Джонс, Софи Рандл, Энтон Лессер, Марк Стэнли, Эдриан Роулинз, Кристофер Фэйрбэнк, Роберт Уилфорт




Описание: Сериал, действия которого происходят в XIX столетии в Лондоне, собирает в себе множество героев из произведений Чарльза Диккенса.. Тесно переплетая судьбы различных героев в условиях одного города, он показывает свою интерпретацию развития событий..

Сюжет сериала разделён на несколько переплетающихся между собой историй.. Первая рассказывает о семье Хэвишем.. Молодая девушка Амелия после смерти отца наследует весь его бизнес, что вызывает бурю негодования у её брата Артура, который рассчитывал получить свою долю.. Он направляет к сестре своего сообщника Меривезера, чтобы тот мирным путём попытался разрешить возникший конфликт.. Но после того, как Амелия выставляет его за дверь, Артур и Меривезер решают разрушить отцовский бизнес.. Вторая расскажет об инспекторе Бакете, который расследует убийство одного из героев.. В третьей старшая сестра Франсис, ставшая хозяйкой в семье Барбери, узнаёт, что её младшая сестра Гонория тайно встречается с капитаном Джеймсом Хаудоном, который просаживает все свои деньги в азартные игры.. Четвертая расскажет о жизни бедного, но благодарного за всё, что у них есть семейства Кретчетов.. А в пятой о жизни маленькой Нелл и её дедушке, который увлечен азартными играми..




Качество: WEB-DL 1080p
Формат: MKV
Видео кодек: AVC
Аудио кодек: AC3
Видео: AVC / 1912x1072 / 23.976fps / ~ 4 974 kbps
Аудио#2: Русский - AC3 / 48.0 KHz / 2 ch / 384 kbps
Аудио#3: Английский - AC3 / 48.0 KHz / 2 ch / 384 kbps
Субтитры: Нет






скриншот   скриншот   скриншот   скриншот   скриншот   скриншот   скриншот  

General
Unique ID : 225917859489939514221364175316211749047 (0xA9F63272490500F6903548C1385850B7)
Complete name : D:\Dickensian.s01.HD1080p.WEB-DL\Dickensian.s01e01.HD1080p.WEB-DL.Rus.Eng.BaibaKo.tv.mkv
Format : Matroska
Format version : Version 4 / Version 2
File size : 1.20 GiB
Duration : 29mn 16s
Overall bit rate : 5 851 Kbps
Encoded date : UTC 2015-12-29 03:46:07
Writing application : mkvmerge v8.3.0 ('Over the Horizon') 64bit
Writing library : libebml v1.3.1 + libmatroska v1.4.2
DURATION : 00:29:16.352000000
NUMBER_OF_FRAMES : 54886
NUMBER_OF_BYTES : 84304896
_STATISTICS_WRITING_APP : mkvmerge v8.3.0 ('Over the Horizon') 64bit
_STATISTICS_WRITING_DATE_UTC : 2015-12-29 03:46:07
_STATISTICS_TAGS : BPS DURATION NUMBER_OF_FRAMES NUMBER_OF_BYTES

Video #1
ID : 1
Format : AVC
Format/Info : Advanced Video Codec
Format profile : High@L4
Format settings, CABAC : Yes
Format settings, ReFrames : 4 frames
Codec ID : V_MPEG4/ISO/AVC
Duration : 29mn 16s
Bit rate : 4 974 Kbps
Width : 1 912 pixels
Height : 1 072 pixels
Display aspect ratio : 16:9
Frame rate mode : Constant
Frame rate : 25.000 fps
Color space : YUV
Chroma subsampling : 4:2:0
Bit depth : 8 bits
Scan type : Progressive
Bits/(Pixel*Frame) : 0.097
Stream size : 1.02 GiB (85%)
Writing library : x264 core 142 r2479 dd79a61
Encoding settings : cabac=1 / ref=4 / deblock=1:0:0 / analyse=0x3:0x113 / me=hex / subme=7 / psy=1 / psy_rd=1.00:0.00 / mixed_ref=1 / me_range=16 / chroma_me=1 / trellis=1 / 8x8dct=1 / cqm=0 / deadzone=21,11 / fast_pskip=1 / chroma_qp_offset=-2 / threads=12 / lookahead_threads=2 / sliced_threads=0 / nr=0 / decimate=1 / interlaced=0 / bluray_compat=0 / constrained_intra=0 / bframes=3 / b_pyramid=2 / b_adapt=1 / b_bias=0 / direct=1 / weightb=1 / open_gop=0 / weightp=2 / keyint=250 / keyint_min=25 / scenecut=40 / intra_refresh=0 / rc_lookahead=40 / rc=2pass / mbtree=1 / bitrate=4974 / ratetol=1.0 / qcomp=0.60 / qpmin=0 / qpmax=69 / qpstep=4 / cplxblur=20.0 / qblur=0.5 / vbv_maxrate=25000 / vbv_bufsize=31250 / nal_hrd=none / filler=0 / ip_ratio=1.40 / aq=1:1.00
Default : No
Forced : No
Color range : Limited
Color primaries : BT.709
Transfer characteristics : BT.709
Matrix coefficients : BT.709

Audio #2
ID : 2
Format : AC-3
Format/Info : Audio Coding 3
Mode extension : CM (complete main)
Format settings, Endianness : Big
Codec ID : A_AC3
Duration : 29mn 16s
Bit rate mode : Constant
Bit rate : 384 Kbps
Channel(s) : 2 channels
Channel positions : Front: L R
Sampling rate : 48.0 KHz
Compression mode : Lossy
Stream size : 80.4 MiB (7%)
Language : Russian
Default : Yes
Forced : No

Audio #3
ID : 3
Format : AC-3
Format/Info : Audio Coding 3
Mode extension : CM (complete main)
Format settings, Endianness : Big
Codec ID : A_AC3
Duration : 29mn 16s
Bit rate mode : Constant
Bit rate : 384 Kbps
Channel(s) : 2 channels
Channel positions : Front: L R
Sampling rate : 48.0 KHz
Compression mode : Lossy
Stream size : 80.4 MiB (7%)
Language : English
Default : No
Forced : No


Внимание! Раздача ведётся путём добавления новых серий; при каждом добавлении создётся новый торрент. Чтобы начать докачку новой серии, пользователям необходимо сделать следующее:

  • Остановить скачивание,

  • Удалить старый торрент у себя из клиента (старые серии удалять не надо),

  • Скачать новый торрент и запустить его у себя в клиенте вместо старого, при этом указать клиенту путь в старую папку куда и должно происходить скачивание новых серий.

    Ваш клиент при этом должен произвести хеширование (проверку) старой папки (если не производит сам - помогите ему сделать это), и будет докачивать только те серии которых у вас ещё нет. Старые серии при этом не удаляются, а продолжают раздаваться!

    Eсли вы уже удалили старые серии, то предотвратить повторную закачку старых серий можно, отжав галочку в соответсвующих местах при запуске нового торрента. По возможности, желательно не удалять старые серии как можно дольше чтобы релизёр не столько продолжал раздавать старые серии, а смог сконцентрироваться на новых.

  • _Добавлена 18-20 серия.. Финал сезона.. (29.02.2016) Просьба перекачать торрент файл..
    _

    pb.wtf



    Скачать Диккенсовщина через торрент http://pic.kartinco.top/images/11/g9i1k.jpg Скачать фильм Диккенсовщина через торрент бесплантно в хорошем качестве Описание: Сериал, действия которого происходят в XIX столетии в Лондоне, собирает в себе множество героев из произведений Чарльза ... 6.3 10 6
    Торрент: Зарегистрирован [2016-02-29 12:42] · скачан: 7 раз
    Статус: √ проверено
    Размер: 24.72 GB
    Как cкачать? Как скачать Диккенсовщина через торрент | qTorrent

    % Раздел Тема Автор DL S | L
    Зарубежные сериалы [ 12.25 GB ] Эпоха Диккенса / Из-под пера Диккенса / Мир Диккенса / Диккенсовщина / Dickensian / Сезон: 1 / Серии 1-20 из 20 [2015 WEB-DLRip-AVC] MVO [BaibaKo] GEKADOL Скачать
    1 | 0

    28-11-2019 20:33  

    Отключить всю рекламу на сайте

      Дорогой пользователь! Огромная просьба, поблагодарите релизера, оцените раздачу и оставьте свои комментарий, если Вы скачали Диккенсовщина через торрент бесплатно! Внесите свою лепту в развитие PiratBit!
      Комментировать посты могут только пользователи прошедшие не сложную регистрацию
      Показать сообщения:    

      Диккенсовщина через торрент
      Скачать бесплатно Диккенсовщина
      Диккенсовщина скачать торрент
      Диккенсовщина смотреть онлайн
      Cкачать фильм Диккенсовщина бесплатно
      Диккенсовщина скачать торрент в хорошем качестве
      Диккенсовщина смотреть онлайн бесплатно в хорошем качестве


      Вы не можете начинать темы
      Вы не можете отвечать на сообщения
      Вы не можете редактировать свои сообщения
      Вы не можете удалять свои сообщения
      Вы не можете голосовать в опросах
      Вы не можете прикреплять файлы к сообщениям
      Вы можете скачивать файлы