Ссылка на приватное зеркало нашего сайта всего за 1$. Внимание количество ограничено!!!

2 сезон

iTunes

1 сезон

1

2 сезон

2 сезон

iTunes

1 сезон

RePack

30

Ultimate

ВАЖНО

ИГРА 18+

pack

RePack

MK11
pack

Забери бонус

RePack

jed

!!Акция!!

Alien_Rage

RePack

fifa19

RePack

Assassins Creed: Odyssey

RePack

NEED FOR SPEED™ PAYBACK

4 сезон

9 сезон

Бесстыжие 9 сезон

Все сериалы

все сериалы на PB.wtf

RePack

FAR CRY 5
  

Руководство по выживанию от Купера Баррэта / Cooper Barrett's Guide to Surviving Life / Сезон: 1 / Серии 1-13 из 13 (Джеймс Гриффитс) [2016 г., Комедия, WEB-DL 1080p] MVO BaibaKo pb.wtf

Руководство по выживанию от Купера Баррэта через торрент pb.wtf

Размер: 12.14 GB | Добавлен: 4 года 3 мес. назад | Торрент скачан:23 раза
Скачать  

17-01-2016 18:24 Руководство по выживанию от Купера Баррэта Скачать торрент  

Руководство по выживанию от Купера Баррэта
Cooper Barrett's Guide to Surviving Life


Год выпуска: 2016
Страна: США
Жанр: Комедия
Продолжительность: ~ 00:23:00 x 13
Перевод: Профессиональный (многоголосый, закадровый) BaibaKo
Реклама: В релизе присутствует реклама казино




Режиссер: Джеймс Гриффитс
Сценарий: Билл Каллахан, Джей Лакопо, John Blickstead
Продюссер: Гэйл Берман, Джей Лакопо
Оператор: Скотт Кеван
Композитор: Джефф Кардони




Сезон : 1
Эпизод: 1-13 из 13




Премьера в мире: 3 января 2016









В ролях:

Джек Катмор-Скотт, Миган Рат, Джеймс Эрл, Лиза Лапира, Чарли Сэкстон, Джастин Барта, Маршалл Манеш, Кимберли Кивон Уильямс, Дайан Мизота, Адам Хэгенбуч




Описание: Молодёжная очень смешная комедия о компании молодых парней, которые решают поселиться в одной квартире, делать только то, что хочется, и ни от кого не зависеть.. Правда, не все идет гладко: с завидной частотой друзья попадают в нелепые и даже опасные ситуации, но благодаря везению и взаимовыручке всегда каким-то образом из них выпутываются..




Качество: WEB-DL 1080p
Формат: MKV
Видео кодек: AVC
Аудио кодек: AC3
Видео: AVC / 1920x1080 / 23.976fps / ~ 5000 kbps
Аудио#2: Русский - AC3 / 48.0 KHz / 6 ch / 384 kbps
Аудио#3: Английский - AC3 / 48.0 KHz / 6 ch / 384 kbps
Субтитры: Нет






скриншот   скриншот   скриншот   скриншот  

General
Unique ID : 179192393443110751445336060301985616669 (0x86CF331B343B7DC387FBFE9F612A931D)
Complete name : D:\Cooper.Barrett's.Guide.to.Surviving.Life.s01.HD1080p.WEB-DL\Cooper.Barrett's.Guide.to.Surviving.Life.s01e01.HD1080p.WEB-DL.Rus.Eng.BaibaKo.tv.mkv
Format : Matroska
Format version : Version 4 / Version 2
File size : 959 MiB
Duration : 22mn 46s
Overall bit rate : 5 886 Kbps
Encoded date : UTC 2016-01-06 03:03:48
Writing application : mkvmerge v8.7.0 ('All of the above') 64bit
Writing library : libebml v1.3.3 + libmatroska v1.4.4
DURATION : 00:22:46.976000000
NUMBER_OF_FRAMES : 42718
NUMBER_OF_BYTES : 65614848
_STATISTICS_WRITING_APP : mkvmerge v8.7.0 ('All of the above') 64bit
_STATISTICS_WRITING_DATE_UTC : 2016-01-06 03:03:48
_STATISTICS_TAGS : BPS DURATION NUMBER_OF_FRAMES NUMBER_OF_BYTES

Video #1
ID : 1
Format : AVC
Format/Info : Advanced Video Codec
Format profile : High@L4
Format settings, CABAC : Yes
Format settings, ReFrames : 4 frames
Codec ID : V_MPEG4/ISO/AVC
Duration : 22mn 46s
Bit rate : 5 009 Kbps
Width : 1 920 pixels
Height : 1 080 pixels
Display aspect ratio : 16:9
Frame rate mode : Constant
Frame rate : 23.976 fps
Color space : YUV
Chroma subsampling : 4:2:0
Bit depth : 8 bits
Scan type : Progressive
Bits/(Pixel*Frame) : 0.101
Stream size : 815 MiB (85%)
Writing library : x264 core 142 r2479 dd79a61
Encoding settings : cabac=1 / ref=4 / deblock=1:0:0 / analyse=0x3:0x113 / me=hex / subme=7 / psy=1 / psy_rd=1.00:0.00 / mixed_ref=1 / me_range=16 / chroma_me=1 / trellis=1 / 8x8dct=1 / cqm=0 / deadzone=21,11 / fast_pskip=1 / chroma_qp_offset=-2 / threads=12 / lookahead_threads=2 / sliced_threads=0 / nr=0 / decimate=1 / interlaced=0 / bluray_compat=0 / constrained_intra=0 / bframes=3 / b_pyramid=2 / b_adapt=1 / b_bias=0 / direct=1 / weightb=1 / open_gop=0 / weightp=2 / keyint=240 / keyint_min=24 / scenecut=40 / intra_refresh=0 / rc_lookahead=40 / rc=2pass / mbtree=1 / bitrate=5009 / ratetol=1.0 / qcomp=0.60 / qpmin=0 / qpmax=69 / qpstep=4 / cplxblur=20.0 / qblur=0.5 / vbv_maxrate=25000 / vbv_bufsize=31250 / nal_hrd=none / filler=0 / ip_ratio=1.40 / aq=1:1.00
Default : No
Forced : No
Color range : Limited
Color primaries : BT.709
Transfer characteristics : BT.709
Matrix coefficients : BT.709

Audio #2
ID : 2
Format : AC-3
Format/Info : Audio Coding 3
Mode extension : CM (complete main)
Format settings, Endianness : Big
Codec ID : A_AC3
Duration : 22mn 46s
Bit rate mode : Constant
Bit rate : 384 Kbps
Channel(s) : 6 channels
Channel positions : Front: L C R, Side: L R, LFE
Sampling rate : 48.0 KHz
Compression mode : Lossy
Stream size : 62.6 MiB (7%)
Language : Russian
Default : Yes
Forced : No

Audio #3
ID : 3
Format : AC-3
Format/Info : Audio Coding 3
Mode extension : CM (complete main)
Format settings, Endianness : Big
Codec ID : A_AC3
Duration : 22mn 46s
Bit rate mode : Constant
Bit rate : 384 Kbps
Channel(s) : 6 channels
Channel positions : Front: L C R, Side: L R, LFE
Sampling rate : 48.0 KHz
Compression mode : Lossy
Stream size : 62.6 MiB (7%)
Language : English
Default : No
Forced : No


Внимание! Раздача ведётся путём добавления новых серий; при каждом добавлении создётся новый торрент. Чтобы начать докачку новой серии, пользователям необходимо сделать следующее:

1. Остановить скачивание,

2. Удалить старый торрент у себя из клиента (старые серии удалять не надо),

3. Скачать новый торрент и запустить его у себя в клиенте вместо старого, при этом указать клиенту путь в старую папку куда и должно происходить скачивание новых серий.

Ваш клиент при этом должен произвести хеширование (проверку) старой папки (если не производит сам - помогите ему сделать это), и будет докачивать только те серии которых у вас ещё нет. Старые серии при этом не удаляются, а продолжают раздаваться!

Eсли вы уже удалили старые серии, то предотвратить повторную закачку старых серий можно, отжав галочку в соответсвующих местах при запуске нового торрента. По возможности, желательно не удалять старые серии как можно дольше чтобы релизёр не столько продолжал раздавать старые серии, а смог сконцентрироваться на новых.

_Добавлена 12 и 13 серия.. Финал сезона.. Просьба перекачать торрент файл..
_

pb.wtf



Скачать Руководство по выживанию от Купера Баррэта через торрент http://pic.kartinco.top/images/11/vdspd.jpg Скачать фильм Руководство по выживанию от Купера Баррэта через торрент бесплантно в хорошем качестве Описание: Молодёжная очень смешная комедия о компании молодых парней, которые решают поселиться в одной квартире, делать только то, что ... 9.8 10 8
Info! Золотая раздача, скачанное не засчитывается.
Торрент: Зарегистрирован [2016-08-20 19:28] · скачан: 23 раз
Статус: √ проверено
Размер: 12.14 GB
Как cкачать? Как скачать Руководство по выживанию от Купера Баррэта через торрент | qTorrent

28-11-2019 20:33  

Отключить всю рекламу на сайте

21-08-2016 05:57 Руководство по выживанию от Купера Баррэта Скачать торрент  

Как сериал кто смотрел?pb.wtf



21-08-2016 06:11 Руководство по выживанию от Купера Баррэта Скачать торрент  

bober100 писал(а):

Как сериал кто смотрел?

Сериал ни о чем. Только если нужно как-то убить время, хотя может кому-то и нравится такая хрень...pb.wtf



    Дорогой пользователь! Огромная просьба, поблагодарите релизера, оцените раздачу и оставьте свои комментарий, если Вы скачали Руководство по выживанию от Купера Баррэта через торрент бесплатно! Внесите свою лепту в развитие PiratBit!
    Комментировать посты могут только пользователи прошедшие не сложную регистрацию
    Показать сообщения:    

    Руководство по выживанию от Купера Баррэта через торрент
    Скачать бесплатно Руководство по выживанию от Купера Баррэта
    Руководство по выживанию от Купера Баррэта скачать торрент
    Руководство по выживанию от Купера Баррэта смотреть онлайн
    Cкачать фильм Руководство по выживанию от Купера Баррэта бесплатно
    Руководство по выживанию от Купера Баррэта скачать торрент в хорошем качестве
    Руководство по выживанию от Купера Баррэта смотреть онлайн бесплатно в хорошем качестве


    Вы не можете начинать темы
    Вы не можете отвечать на сообщения
    Вы не можете редактировать свои сообщения
    Вы не можете удалять свои сообщения
    Вы не можете голосовать в опросах
    Вы не можете прикреплять файлы к сообщениям
    Вы можете скачивать файлы