Ссылка на приватное зеркало всего за 1$. Внимание количество ограничено!!!

iTunes

iTunes

iTunes

1

iTunes

iTunes

iTunes

iTunes

iTunes

30
pack

Новость дня

ВАЖНО

!!Акция!!

Alien_RageХит недели

RePack

Resident Evil 21

ИГРА 18+

pack

RePack

jed

!!Акция!!

Alien_Rage

RePack

fifa19

RePack

Assassins Creed: Odyssey

RePack

NEED FOR SPEED™ PAYBACK

4 сезон

9 сезон

Бесстыжие 9 сезон

Все сериалы

все сериалы на PB.wtf

RePack

FAR CRY 5
  

Экспириенс (Евгений Татаров) [2015, драма, SATRip, [Русский] pb.wtf

Экспириенс через торрент pb.wtf

Размер: 1.44 GB | Добавлен: 4 года 4 мес. назад | Торрент скачан:470 раз
Скачать  

17-01-2016 21:25 Экспириенс Скачать торрент  


Экспириенс


ИНФОРМАЦИЯ:
Год выпуска:2015
Страна: Россия
Жанр: драма
Продолжительность: 01:29:56
Перевод: Не требуется [Русский]
Режиссер: Евгений Татаров

В Ролях:


Кирилл Жандаров, Владимир Меньшов, Галина Сумина, Юрий Елагин, Ирина Ларионова, Евгений Леонов-Гладышев, Ирина Яковлева, Александр Тютрюмов, Владимир Матвеев, Сергей Рост, Будэрдэнэ Энхбат, Андрей Шимко

Описание:
Молодой учёный на пороге сенсационного открытия. Его программа по коррекции памяти обещает навсегда избавить людей от негативных воспоминаний. Успех проекта приносит его создателю славу, деньги и. ... осознание оборотной стороны вмешательства в жизненный опыт человека.


ТЕХ.ДАННЫЕ:
Качество: SATRip
Формат: AVI
Видео: XviD, 720x304 (2.35:1), 2005 kbps, 25 fps, 0,367 bpp
Аудио: AC3 / 2.0 / 48 kHz / 192 kbps / 16 bit


General
Complete name : D:\Торенты\Jekspiriens.SATRip.avi
Format : AVI
Format/Info : Audio Video Interleave
File size : 1.44 GiB
Duration : 1h 29mn
Overall bit rate : 2 298 Kbps
Writing application : VirtualDubMod 1.5.10.3 | www.virtualdub-fr.org || (build 2550/release)
Writing library : VirtualDubMod build 2550/release

Video
ID : 0
Format : MPEG-4 Visual
Format profile : Advanced Simple@L5
Format settings, BVOP : 2
Format settings, QPel : No
Format settings, GMC : No warppoints
Format settings, Matrix : Default (H.263)
Codec ID : XVID
Codec ID/Hint : XviD
Duration : 1h 29mn
Bit rate : 2 006 Kbps
Width : 720 pixels
Height : 304 pixels
Display aspect ratio : 2.35:1
Frame rate : 25.000 fps
Color space : YUV
Chroma subsampling : 4:2:0
Bit depth : 8 bits
Scan type : Progressive
Compression mode : Lossy
Bits/(Pixel*Frame) : 0.367
Stream size : 1.26 GiB (87%)
Writing library : XviD 1.2.1 (UTC 2008-12-04)

Audio
ID : 1
Format : AC-3
Format/Info : Audio Coding 3
Mode extension : CM (complete main)
Codec ID : 2000
Duration : 1h 29mn
Bit rate mode : Constant
Bit rate : 192 Kbps
Channel(s) : 2 channels
Channel positions : Front: L R
Sampling rate : 48.0 KHz
Bit depth : 16 bits
Compression mode : Lossy
Stream size : 124 MiB (8%)
Alignment : Split accross interleaves
Скриншоты:

© Оформление by .::Ворон::.
pb.wtf



Скачать Экспириенс через торрент http://pic.kartinco.top/images/6/ordi9.jpg Скачать фильм Экспириенс через торрент бесплантно в хорошем качестве Описание: Молодой учёный на пороге сенсационного открытия. Его программа по коррекции памяти обещает навсегда избавить людей от негативных ... 10 10 7
Торрент: Зарегистрирован [2016-01-17 21:25] · скачан: 470 раз
Статус: √ проверено
Размер: 1.44 GB
Как cкачать? Как скачать Экспириенс через торрент | qTorrent

28-11-2019 20:33  

Отключить всю рекламу на сайте

18-01-2016 08:41 Экспириенс Скачать торрент  

Хопкинс на постере!)аа не, показалось)pb.wtf



18-01-2016 17:07 Экспириенс Скачать торрент  

Та же фигня...pb.wtf



19-01-2016 08:44 Экспириенс Скачать торрент  

Как фильм?больше 120 раз скачан не одного комментария по сюжету. pb.wtf



    Дорогой пользователь! Огромная просьба, поблагодарите релизера, оцените раздачу и оставьте свои комментарий, если Вы скачали Экспириенс через торрент бесплатно! Внесите свою лепту в развитие PiratBit!
    Комментировать посты могут только пользователи прошедшие не сложную регистрацию
    Показать сообщения:    

    Экспириенс через торрент
    Скачать бесплатно Экспириенс
    Экспириенс скачать торрент
    Экспириенс смотреть онлайн
    Cкачать фильм Экспириенс бесплатно
    Экспириенс скачать торрент в хорошем качестве
    Экспириенс смотреть онлайн бесплатно в хорошем качестве


    Вы не можете начинать темы
    Вы не можете отвечать на сообщения
    Вы не можете редактировать свои сообщения
    Вы не можете удалять свои сообщения
    Вы не можете голосовать в опросах
    Вы не можете прикреплять файлы к сообщениям
    Вы можете скачивать файлы