Ссылка на приватное зеркало нашего сайта всего за 1$. Внимание количество ограничено!!!

2 сезон

iTunes

1 сезон

1

iTunes

iTunes

iTunes

1 сезон

RePack

30

ИГРА 18+

pack

ВАЖНО

!!Акция!!

Alien_RageХит недели

RePack

MK11
pack

Забери бонус

RePack

jed

!!Акция!!

Alien_Rage

RePack

fifa19

RePack

Assassins Creed: Odyssey

RePack

NEED FOR SPEED™ PAYBACK

4 сезон

9 сезон

Бесстыжие 9 сезон

Все сериалы

все сериалы на PB.wtf

RePack

FAR CRY 5
  

Дневник девочки-подростка / The Diary of a Teenage Girl (Мариэль Хеллер) [2015, драма, мелодрама, BDRip 1080p, Профессиональный многоголосый [Лицензия / iTunes] pb.wtf

Дневник девочки-подростка через торрент pb.wtf

Размер: 7.92 GB | Добавлен: 4 года 9 мес. назад | Торрент скачан:51 раз
Скачать  

17-01-2016 21:28 Дневник девочки-подростка Скачать торрент  


Дневник девочки-подростка / The Diary of a Teenage Girl


ИНФОРМАЦИЯ:
Год выпуска:2015
Страна: США
Жанр: драма, мелодрама

Продолжительность: 01:42:08
Перевод: Профессиональный многоголосый [Лицензия / iTunes]
Режиссер: Мариэль Хеллер

В Ролях:


Бел Паули (Minnie), Willie (Domino the Cat), Кристен Уиг (Charlotte), Эбби Уэйт (Gretel), Александр Скарсгард (Monroe), Миранда Бэйли (Andrea), Карсон Д. Мелл (Michael Cocaine), Джон Парсонс (Burt), Madeleine Waters (Kimmie), Остин Лион (Ricky Wasserman), Quinn Nagle (Chuck), Дави Клементс (Arnie)

Описание:
История девочки-подростка, живущей в Сан-Франциско в 70-е годы, которая завела интрижку с бойфрендом своей мамы.

  • Мировая премьера:24 января 2015

    ТЕХ.ДАННЫЕ:
    Качество: BDRip 1080p
    Формат: MKV
    Видео: AVC, 1920x800 (2.40:1), 9216 kbps, 23,976 fps, 0,250 bpp
    Аудио №1: русский / AC3 / 5.1 / 48 kHz / 384 kbps / 16 bit ||
    Аудио №2: английский / DTS / 5.1 / 48 kHz / 1510 kbps / 24 bit
    Навигация по главам: есть


    General
    Unique ID : 230495867594459710632323270625088433670 (0xAD67E3AC2A0EBEB693FC27A72056EE06)
    Complete name : D:\Торенты\Dn3vn1k.Devo4ki.P0drostka.2015.P.BDRip.1080p.mkv
    Format : Matroska
    Format version : Version 4 / Version 2
    File size : 7.92 GiB
    Duration : 1h 42mn
    Overall bit rate : 11.1 Mbps
    Encoded date : UTC 2016-01-17 19:50:25
    Writing application : mkvmerge v8.3.0 ('Over the Horizon') 64bit
    Writing library : libebml v1.3.1 + libmatroska v1.4.2

    Video
    ID : 1
    Format : AVC
    Format/Info : Advanced Video Codec
    Format profile : High@L4.1
    Format settings, CABAC : Yes
    Format settings, ReFrames : 5 frames
    Codec ID : V_MPEG4/ISO/AVC
    Duration : 1h 42mn
    Bit rate : 9 216 Kbps
    Width : 1 920 pixels
    Height : 800 pixels
    Display aspect ratio : 2.40:1
    Frame rate : 23.976 fps
    Color space : YUV
    Chroma subsampling : 4:2:0
    Bit depth : 8 bits
    Scan type : Progressive
    Bits/(Pixel*Frame) : 0.250
    Stream size : 6.42 GiB (81%)
    Writing library : x264 core 148 r2638 7599210
    Encoding settings : cabac=1 / ref=5 / deblock=1:0:0 / analyse=0x3:0x133 / me=umh / subme=7 / psy=1 / psy_rd=1.00:0.00 / mixed_ref=1 / me_range=16 / chroma_me=1 / trellis=1 / 8x8dct=1 / cqm=0 / deadzone=21,11 / fast_pskip=0 / chroma_qp_offset=-2 / threads=18 / lookahead_threads=3 / sliced_threads=0 / nr=0 / decimate=1 / interlaced=0 / bluray_compat=0 / constrained_intra=0 / bframes=3 / b_pyramid=2 / b_adapt=1 / b_bias=0 / direct=1 / weightb=1 / open_gop=0 / weightp=2 / keyint=250 / keyint_min=23 / scenecut=40 / intra_refresh=0 / rc_lookahead=40 / rc=2pass / mbtree=1 / bitrate=9216 / ratetol=1.0 / qcomp=0.60 / qpmin=0 / qpmax=69 / qpstep=4 / cplxblur=20.0 / qblur=0.5 / ip_ratio=1.40 / aq=1:1.00
    Language : English
    Default : Yes
    Forced : No

    Audio #1
    ID : 2
    Format : AC-3
    Format/Info : Audio Coding 3
    Mode extension : CM (complete main)
    Codec ID : A_AC3
    Duration : 1h 42mn
    Bit rate mode : Constant
    Bit rate : 384 Kbps
    Channel(s) : 6 channels
    Channel positions : Front: L C R, Side: L R, LFE
    Sampling rate : 48.0 KHz
    Bit depth : 16 bits
    Compression mode : Lossy
    Delay relative to video : 955ms
    Stream size : 281 MiB (3%)
    Language : Russian
    Default : Yes
    Forced : No

    Audio #2
    ID : 3
    Format : DTS
    Format/Info : Digital Theater Systems
    Codec ID : A_DTS
    Duration : 1h 42mn
    Bit rate mode : Constant
    Bit rate : 1 510 Kbps
    Channel(s) : 6 channels
    Channel positions : Front: L C R, Side: L R, LFE
    Sampling rate : 48.0 KHz
    Bit depth : 24 bits
    Compression mode : Lossy
    Stream size : 1.08 GiB (14%)
    Language : English
    Default : No
    Forced : No

    Menu
    00:00:00.000 : en:00:00:00.000
    00:06:43.153 : en:00:06:43.153
    00:14:35.917 : en:00:14:35.917
    00:20:25.850 : en:00:20:25.850
    00:28:04.766 : en:00:28:04.766
    00:34:59.973 : en:00:34:59.973
    00:40:59.666 : en:00:40:59.666
    00:45:02.617 : en:00:45:02.617
    00:50:04.251 : en:00:50:04.251
    00:56:26.592 : en:00:56:26.592
    01:01:52.542 : en:01:01:52.542
    01:08:04.998 : en:01:08:04.998
    01:16:34.965 : en:01:16:34.965
    01:23:41.767 : en:01:23:41.767
    01:29:15.225 : en:01:29:15.225
    01:36:01.673 : en:01:36:01.673
    Скриншоты:

    © Оформление by .::Ворон::.
    pb.wtf



  • Скачать Дневник девочки-подростка через торрент http://pic.kartinco.top/images/6/ordi9.jpg Скачать фильм Дневник девочки-подростка через торрент бесплантно в хорошем качестве Описание: История девочки-подростка, живущей в Сан-Франциско в 70-е годы, которая завела интрижку с бойфрендом своей мамы. Мировая ... 10 10 3
    Торрент: Зарегистрирован [2016-01-17 21:28] · скачан: 51 раз
    Статус: T временная
    Размер: 7.92 GB
    Как cкачать? Как скачать Дневник девочки-подростка через торрент | qTorrent

    % Раздел Тема Автор DL S | L
    Фильмы 2015 [DVDrip, WEB-DLRip, HDrip] [ 1.42 GB ] Дневник девочки-подростка / The Diary of a Teenage Girl [2015 BDRip-AVC от sokol_ok] MVO sokol_ok Скачать
    2 | 0
    Фильмы 2015 [DVDrip, WEB-DLRip, HDrip] [ 2.14 GB ] Дневник девочки-подростка / The Diary of a Teenage Girl [2015 BDRip-AVC от sokol_ok] MVO sokol_ok Скачать
    2 | 0
    Фильмы (Blu-ray, BD-Remux, HDDVD) [ 32.53 GB ] Дневник девочки-подростка / The Diary of a Teenage Girl [2015 Blu-Ray от BlueBird] MVO Russian Mafia Скачать
    1 | 0
    Фильмы 2015 [DVDrip, WEB-DLRip, HDrip] [ 1.42 GB ] Дневник девочки-подростка / The Diary of a Teenage Girl [2015 BDRip-AVC] MVO potroks Скачать
    1 | 0
    Фильмы 2015 [DVDrip, WEB-DLRip, HDrip] [ 1.46 GB ] Дневник девочки-подростка / The Diary of a Teenage Girl [2015 HDRip] Ворон Скачать
    1 | 0

    28-11-2019 20:33  

    Отключить всю рекламу на сайте

      Дорогой пользователь! Огромная просьба, поблагодарите релизера, оцените раздачу и оставьте свои комментарий, если Вы скачали Дневник девочки-подростка через торрент бесплатно! Внесите свою лепту в развитие PiratBit!
      Комментировать посты могут только пользователи прошедшие не сложную регистрацию
      Показать сообщения:    

      Дневник девочки-подростка через торрент
      Скачать бесплатно Дневник девочки-подростка
      Дневник девочки-подростка скачать торрент
      Дневник девочки-подростка смотреть онлайн
      Cкачать фильм Дневник девочки-подростка бесплатно
      Дневник девочки-подростка скачать торрент в хорошем качестве
      Дневник девочки-подростка смотреть онлайн бесплатно в хорошем качестве


      Вы не можете начинать темы
      Вы не можете отвечать на сообщения
      Вы не можете редактировать свои сообщения
      Вы не можете удалять свои сообщения
      Вы не можете голосовать в опросах
      Вы не можете прикреплять файлы к сообщениям
      Вы можете скачивать файлы