Ссылка на приватное зеркало нашего сайта всего за 1$. Внимание количество ограничено!!!

2 сезон

iTunes

1 сезон

1

2 сезон

2 сезон

iTunes

1 сезон

RePack

30

Новинка

ВАЖНО

ИГРА 18+

pack

RePack

MK11
pack

Забери бонус

RePack

jed

!!Акция!!

Alien_Rage

RePack

fifa19

RePack

Assassins Creed: Odyssey

RePack

NEED FOR SPEED™ PAYBACK

4 сезон

9 сезон

Бесстыжие 9 сезон

Все сериалы

все сериалы на PB.wtf

RePack

FAR CRY 5
  

Мистер Робинсон / Mr. Robinson / Сезон: 1 / Серии: 1-3 из 6 (Энди Экерман, Стив Пинк) [2015, Комедия, WEB-DLRip] [VO] (Кураж Бамбей) pb.wtf

Мистер Робинсон через торрент pb.wtf

Размер: 1.25 GB | Добавлен: 4 года 10 мес. назад | Торрент скачан:13 раз
Скачать  

18-01-2016 09:31 Мистер Робинсон Скачать торрент  

Мистер Робинсон / Mr. Robinson
Год выпуска: 2015
Жанр: Комедия
Выпущено: США, 3 Arts Entertainment, Cullen Bros. Television, Universal TV
Продолжительность: 3 х ~ 00:22:00
Перевод: Профессиональный (одноголосый) [Кураж Бамбей]
Субтитры: Английские (отдельными файлами)

Режиссер: Энди Экерман, Стив Пинк

В ролях: Крэйг Робинсон, Амандла Стенберг, Пери Гилпин, Тим Бэгли, Азиф Али, Данте Браун, Этан Джош Ли, Франческа Майа, Мишель Беттс, Мэтт Питтенгер

Описание: Комедия с известным нам по сериалу «Офис» Крэйг Робинсон, персонаж которого старается заработать на жизнь, днем работая замещающим учителем, а ночью — профессиональным музыкантом. Концепт шоу навеян реальной жизнью самого главного героя. Как ведущий вокалист и клавишник фанк-группы Nasty Delicious Крейг знает кое-что о работе с залом, хотя это качество гораздо важнее на его дневной работе. Каждый бедствующий артист знает главное правило: пока он готовится к следующему занятию, нужно не забывать платить по счетам. Так что когда средств остается совсем мало, он устраивается на работу учителем музыки в местную школу..



Качество: WEB-DLRip
Формат: AVI
Видео кодек: XvID
Аудио кодек: AC3
Видео: 720x400 (1.80:1), 23.976 fps, XviD MPEG-4 ~1998 kbps avg, 0.29 bit/pixel
Аудио: 48 kHz, AC3 Dolby Digital, 3/2 (L,C,R,l,r) + LFE ch, ~384.00 kbps avg (Кураж Бамбей)
Аудио: 48 kHz, AC3 Dolby Digital, 3/2 (L,C,R,l,r) + LFE ch, ~384.00 kbps avg (Eng)

Цитата:

Работа со звуком: k-marat-s
Рип: ЛП

General
Complete name : E:\INTERNET\Mr. Robinson Season 1 CasStudio.TV\Mr.Robinson.s01e01.rus.eng.CasStudio.TV.avi
Format : AVI
Format/Info : Audio Video Interleave
File size : 428 MiB
Duration : 21mn 30s
Overall bit rate : 2 782 Kbps
Writing application : VirtualDubMod 1.5.10.2 (build 2540/release)
Writing library : VirtualDubMod build 2540/release

Video
ID : 0
Format : MPEG-4 Visual
Format profile : Advanced Simple@L5
Format settings, BVOP : 1
Format settings, QPel : No
Format settings, GMC : No warppoints
Format settings, Matrix : Default (MPEG)
Codec ID : XVID
Codec ID/Hint : XviD
Duration : 21mn 30s
Bit rate : 2 000 Kbps
Width : 720 pixels
Height : 400 pixels
Display aspect ratio : 16:9
Frame rate : 23.976 fps
Color space : YUV
Chroma subsampling : 4:2:0
Bit depth : 8 bits
Scan type : Progressive
Compression mode : Lossy
Bits/(Pixel*Frame) : 0.290
Stream size : 308 MiB (72%)
Writing library : XviD 73

Audio #1
ID : 1
Format : AC-3
Format/Info : Audio Coding 3
Mode extension : CM (complete main)
Format settings, Endianness : Big
Codec ID : 2000
Duration : 21mn 30s
Bit rate mode : Constant
Bit rate : 384 Kbps
Channel(s) : 6 channels
Channel positions : Front: L C R, Side: L R, LFE
Sampling rate : 48.0 KHz
Compression mode : Lossy
Stream size : 59.1 MiB (14%)
Alignment : Split accross interleaves
Interleave, duration : 42 ms (1.00 video frame)
Interleave, preload duration : 500 ms

Audio #2
ID : 2
Format : AC-3
Format/Info : Audio Coding 3
Mode extension : CM (complete main)
Format settings, Endianness : Big
Codec ID : 2000
Duration : 21mn 30s
Bit rate mode : Constant
Bit rate : 384 Kbps
Channel(s) : 6 channels
Channel positions : Front: L C R, Side: L R, LFE
Sampling rate : 48.0 KHz
Compression mode : Lossy
Stream size : 59.1 MiB (14%)
Alignment : Split accross interleaves
Interleave, duration : 42 ms (1.00 video frame)
Interleave, preload duration : 500 ms[/code]
Внимание! Раздача ведётся путём добавления новых серий; при каждом добавлении создётся новый торрент. Чтобы начать докачку новой серии, пользователям необходимо сделать следующее: (1) остановить скачивание, (2) удалить старый торрент у себя из клиента (старые серии удалять не надо), (3) скачать новый торрент и запустить его у себя в клиенте вместо старого, при этом указать клиенту путь в старую папку куда и должно происходить скачивание новых серий.
Ваш клиент при этом должен произвести хеширование (проверку) старой папки (если не производит сам - помогите ему сделать это), и будет докачивать только те серии которых у вас ещё нет. Старые серии при этом не удаляются, а продолжают раздаваться!
Eсли вы уже удалили старые серии, то предотвратить повторную закачку старых серий можно, отжав галочку в соответсвующих местах при запуске нового торрента.
pb.wtf



Скачать Мистер Робинсон через торрент http://i73.fastpic.ru/big/2016/0118/eb/2cf307aa64eb4e906f22c873ab7c69eb.jpg Скачать фильм Мистер Робинсон через торрент бесплантно в хорошем качестве Описание: Комедия с известным нам по сериалу «Офис» Крэйг Робинсон, персонаж которого старается заработать на жизнь, днем работая ... 10 10 1
Info! Серебряная раздача, засчитывается только 50% скачанного.
Торрент: Зарегистрирован [2016-01-18 09:31] · скачан: 13 раз
Статус: √ проверено
Размер: 1.25 GB
Как cкачать? Как скачать Мистер Робинсон через торрент | qTorrent

28-11-2019 20:33  

Отключить всю рекламу на сайте

    Дорогой пользователь! Огромная просьба, поблагодарите релизера, оцените раздачу и оставьте свои комментарий, если Вы скачали Мистер Робинсон через торрент бесплатно! Внесите свою лепту в развитие PiratBit!
    Комментировать посты могут только пользователи прошедшие не сложную регистрацию
    Показать сообщения:    

    Мистер Робинсон через торрент
    Скачать бесплатно Мистер Робинсон
    Мистер Робинсон скачать торрент
    Мистер Робинсон смотреть онлайн
    Cкачать фильм Мистер Робинсон бесплатно
    Мистер Робинсон скачать торрент в хорошем качестве
    Мистер Робинсон смотреть онлайн бесплатно в хорошем качестве


    Вы не можете начинать темы
    Вы не можете отвечать на сообщения
    Вы не можете редактировать свои сообщения
    Вы не можете удалять свои сообщения
    Вы не можете голосовать в опросах
    Вы не можете прикреплять файлы к сообщениям
    Вы можете скачивать файлы