новый адрес пиратбит piratbit
Мега распродажа FORZA HORIZON 4 ULTIMATE+ВСЕ DLC+ОНЛАЙН всего за 499р. 349 руб. (супер цена). Внимание количество ограничено!!!

iTunes

1+1

iTunes

мы

iTunes

1

iTunes

Чернобыль

iTunes

Ральф против интернета

Лицензия

ПШазам

Лицензия

Игра престолов

Лицензия

30
pack

ВАЖНО

!!Акция!!

Alien_RageХит недели

RePack

Resident Evil 21

ИГРА 18+

pack

RePack

Metro:Exodus

!!Акция!!

Alien_Rage

RePack

fifa19

RePack

Assassins Creed: Odyssey

RePack

NEED FOR SPEED™ PAYBACK

3 сезон

9 сезон

Бесстыжие 9 сезон

Все сериалы

все сериалы на PB.wtf

RePack

FAR CRY 5
Ребята, катастрофически не хватает 1900р. для оплаты серверов за Октябрь (всвязи с блокировками трафик упал в 3 раза), 1-2р., выручайте.
  

Алёша Птицын вырабатывает характер (Анатолий Грaник) [1953, СССР, комедия, семейный, DVDRip от AVP Studio] pb.wtf

Алёша Птицын вырабатывает характер через торрент pb.wtf

Размер: 1.09 GB | Добавлен: 3 года 9 мес. назад | Торрент скачан:15 раз
Скачать  

18-01-2016 11:49 Алёша Птицын вырабатывает характер Скачать торрент  

Алёша Птицын вырабатывает характер
Страна: СССР
Производство: Ленфильм

Жанр: комедия, семейный
Год выпуска: 1953
Продолжительность: 01:08:07

Перевод: Не требуется
Cубтитры: нет
Оригинальная аудиодорожка: русский

Режиссер: Анатолий Грaник

В ролях:
Виктор Каргопольцев, Ольга Пыжова, Валентина Сперантова, Наталья Селезнёва, Юрий Бубликов, Тамара Алёшина, Надежда Румянцева, Александр Михайлов, Роза Макагонова, Лидия Сухаревская, Сергей Подмастерьев, Боря Васильев...
Полный список актёров

Описание:
По одноименной повести А.Барто. Ученик третьего класса Алёша решил заняться самовоспитанием: не поддаваться соблазнам и жить по строгому распорядку. Отказавшись от опеки рассеянной бабушки и вредной сестренки, он начал с того, что самостоятельно пришел в школу, сорвал урок, устыдившись, сделал хорошее дело - вернул утерянную тетрадь владельцу и отправился показывать гостям столицу, не думая о том, как к этому отнесутся доpогие папа и мама...

Источник: DVD5 R5
Качество видео: DVDRip
Формат видео: AVI

Видео: 688x512 (4:3), 25 fps, XviD ~ 2089 kbps avg, 0.237 bit/pixel
Аудио: 48 kHz, Dolby Digital AC3 2.0, 192 kbps

Раздача от:
Общее
Полное имя : Alyosha.Pticyn.vyrabatyvaet.harakter.1953.DVDRip_[New-team]_by_AVP_Studio.avi
Формат : AVI
Формат/Информация : Audio Video Interleave
Размер файла : 1,09 Гбайт
Продолжительность : 1 ч. 8 м.
Общий поток : 2290 Кбит/сек
Программа кодирования : VirtualDubMod 1.5.10.3 | www.virtualdub-fr.org || (build 2550/release)
Библиотека кодирования : VirtualDubMod build 2550/release

Видео
Идентификатор : 0
Формат : MPEG-4 Visual
Профиль формата : Advanced Simple@L5
Параметр BVOP формата : 1
Параметр QPel формата : Нет
Параметр GMC формата : Без точки перехода
Параметр матрицы формата : Выборочная
Идентификатор кодека : XVID
Идентификатор кодека/Подсказка : XviD
Продолжительность : 1 ч. 8 м.
Битрейт : 2089 Кбит/сек
Ширина : 688 пикселей
Высота : 512 пикселей
Соотношение сторон : 4:3
Частота кадров : 25,000 кадров/сек
Цветовое пространство : YUV
Субдискретизация насыщенности : 4:2:0
Битовая глубина : 8 бит
Тип развёртки : Прогрессивная
Метод сжатия : С потерями
Бит/(Пиксели*Кадры) : 0.237
Размер потока : 1018 Мбайт (91%)
Библиотека кодирования : XviD 1.2.1 (UTC 2008-12-04)

Аудио
Идентификатор : 1
Формат : AC-3
Формат/Информация : Audio Coding 3
Расширение режима : CM (complete main)
Параметр Endianness формата : Big
Идентификатор кодека : 2000
Продолжительность : 1 ч. 8 м.
Вид битрейта : Постоянный
Битрейт : 192 Кбит/сек
Каналы : 2 канала
Расположение каналов : Front: L R
Частота : 48,0 КГц
Частота кадров : 31,250 кадров/сек (1536 spf)
Метод сжатия : С потерями
Размер потока : 93,5 Мбайт (8%)
Выравнивание : Разделение по промежуткам
Продолжительность промежутка : 40 мс. (1,00 видеокадр)
Время предзагрузки промежутка : 500 мс
pb.wtf



Скачать Алёша Птицын вырабатывает характер через торрент http://s017.radikal.ru/i427/1601/f9/b9fccf516c7e.png Скачать фильм Алёша Птицын вырабатывает характер через торрент бесплантно в хорошем качестве Описание:По одноименной повести А.Барто. Ученик третьего класса Алёша решил заняться самовоспитанием: не поддаваться соблазнам и жить по ... 10 10 2
Info! Золотая раздача, скачанное не засчитывается.
Торрент: Зарегистрирован [2016-01-18 11:49] · скачан: 15 раз
Статус: √ проверено
Размер: 1.09 GB
Как cкачать? Как скачать Алёша Птицын вырабатывает характер через торрент | qTorrent

% Раздел Тема Автор DL S | L
Кино СССР [ 1.09 GB ] Алёша Птицын вырабатывает характер [1953 СССР DVDRip-AVC от AVP Studio] AVP Studio Скачать
1 | 0
Кино СССР [ 744 MB ] Алёша Птицын вырабатывает характер [1953 СССР DVDRip от AVP Studio] AVP Studio Скачать
1 | 0


>> Регистрируемся здесь <<






Отзывы и комментарии о схеме читаем и пишем здесь: ---> Отзывы и комментарии о схеме

Новые благодарочки в телеграм довольных пользователей:
скриншот   скриншот   скриншот   скриншот   скриншот
    Дорогой пользователь! Огромная просьба, поблагодарите релизера, оцените раздачу и оставьте свои комментарий, если Вы скачали Алёша Птицын вырабатывает характер через торрент бесплатно! Внесите свою лепту в развитие PiratBit!
    Комментировать посты могут только пользователи прошедшие не сложную регистрацию
    Показать сообщения:    

    Алёша Птицын вырабатывает характер через торрент
    Скачать бесплатно Алёша Птицын вырабатывает характер
    Алёша Птицын вырабатывает характер скачать торрент
    Алёша Птицын вырабатывает характер смотреть онлайн
    Cкачать фильм Алёша Птицын вырабатывает характер бесплатно
    Алёша Птицын вырабатывает характер скачать торрент в хорошем качестве
    Алёша Птицын вырабатывает характер смотреть онлайн бесплатно в хорошем качестве


    Вы не можете начинать темы
    Вы не можете отвечать на сообщения
    Вы не можете редактировать свои сообщения
    Вы не можете удалять свои сообщения
    Вы не можете голосовать в опросах
    Вы не можете прикреплять файлы к сообщениям
    Вы можете скачивать файлы