новый адрес
Ссылка на приватное зеркало всего за 1$. Внимание количество ограничено!!!

iTunes

1+1

iTunes

мы

iTunes

1

iTunes

Чернобыль

iTunes

Ральф против интернета

Лицензия

ПШазам

Лицензия

Оно 2

Лицензия

30
pack

Вам бонус

ВАЖНО

!!Акция!!

Alien_RageХит недели

RePack

Resident Evil 21

ИГРА 18+

pack

RePack

jed

!!Акция!!

Alien_Rage

RePack

fifa19

RePack

Assassins Creed: Odyssey

RePack

NEED FOR SPEED™ PAYBACK

3 сезон

9 сезон

Бесстыжие 9 сезон

Все сериалы

все сериалы на PB.wtf

RePack

FAR CRY 5
Ребята, катастрофически не хватает 1900р. для оплаты серверов за Октябрь (всвязи с блокировками трафик упал в 3 раза), 1-2р., выручайте.
  

Алёша Птицын вырабатывает характер (Анатолий Грaник) [1953, СССР, комедия, семейный, DVDRip-AVC от AVP Studio] pb.wtf

Алёша Птицын вырабатывает характер через торрент pb.wtf

Размер: 1.09 GB | Добавлен: 3 года 10 мес. назад | Торрент скачан:32 раза
Скачать  

18-01-2016 11:51 Алёша Птицын вырабатывает характер Скачать торрент  

Алёша Птицын вырабатывает характер
Страна: СССР
Производство: Ленфильм

Жанр: комедия, семейный
Год выпуска: 1953
Продолжительность: 01:08:07

Перевод: Не требуется
Cубтитры: нет
Оригинальная аудиодорожка: русский

Режиссер: Анатолий Грaник

В ролях:
Виктор Каргопольцев, Ольга Пыжова, Валентина Сперантова, Наталья Селезнёва, Юрий Бубликов, Тамара Алёшина, Надежда Румянцева, Александр Михайлов, Роза Макагонова, Лидия Сухаревская, Сергей Подмастерьев, Боря Васильев...
Полный список актёров

Описание:
По одноименной повести А.Барто. Ученик третьего класса Алёша решил заняться самовоспитанием: не поддаваться соблазнам и жить по строгому распорядку. Отказавшись от опеки рассеянной бабушки и вредной сестренки, он начал с того, что самостоятельно пришел в школу, сорвал урок, устыдившись, сделал хорошее дело - вернул утерянную тетрадь владельцу и отправился показывать гостям столицу, не думая о том, как к этому отнесутся доpогие папа и мама...

Источник: DVD5 R5
Качество видео: DVDRip-AVC
Формат видео: MKV

Видео: 688->746x560 (4:3), 25 fps, H264 ~ 2095 kbps avg, 0.218 bit/pixel
Аудио: 48 kHz, Dolby Digital AC3 2.0, 192 kbps

Раздача от:
Общее
Полное имя : Alyosha.Pticyn.vyrabatyvaet.harakter.1953.DVDRip-AVC_[New-team]_by_AVP_Studio.mkv
Формат : Matroska
Версия формата : Version 2
Размер файла : 1,09 Гбайт
Продолжительность : 1 ч. 8 м.
Общий поток : 2289 Кбит/сек
Дата кодирования : UTC 2016-01-14 12:23:42
Программа кодирования : mkvmerge v6.1.0 ('Old Devil') built on Mar 4 2013 09:10:42
Библиотека кодирования : libebml v1.3.0 + libmatroska v1.4.0

Видео
Идентификатор : 1
Формат : AVC
Формат/Информация : Advanced Video Codec
Профиль формата : High@L4.1
Параметр CABAC формата : Да
Параметр ReFrames формата : 10 кадров
Идентификатор кодека : V_MPEG4/ISO/AVC
Продолжительность : 1 ч. 8 м.
Битрейт : 2095 Кбит/сек
Ширина : 688 пикселей
Высота : 560 пикселей
Соотношение сторон : 4:3
Режим частоты кадров : Постоянный
Частота кадров : 25,000 кадров/сек
Цветовое пространство : YUV
Субдискретизация насыщенности : 4:2:0
Битовая глубина : 8 бит
Тип развёртки : Прогрессивная
Бит/(Пиксели*Кадры) : 0.218
Размер потока : 999 Мбайт (90%)
Библиотека кодирования : x264 core 130 r2273 b3065e6
Настройки программы : cabac=1 / ref=10 / deblock=1:-2:-1 / analyse=0x3:0x113 / me=umh / subme=10 / psy=1 / psy_rd=1.00:0.00 / mixed_ref=1 / me_range=32 / chroma_me=1 / trellis=2 / 8x8dct=1 / cqm=0 / deadzone=21,11 / fast_pskip=1 / chroma_qp_offset=-2 / threads=6 / lookahead_threads=1 / sliced_threads=0 / nr=0 / decimate=0 / interlaced=0 / bluray_compat=0 / constrained_intra=0 / bframes=8 / b_pyramid=2 / b_adapt=2 / b_bias=0 / direct=3 / weightb=1 / open_gop=0 / weightp=2 / keyint=250 / keyint_min=25 / scenecut=40 / intra_refresh=0 / rc=2pass / mbtree=0 / bitrate=2095 / ratetol=1.0 / qcomp=0.60 / qpmin=0 / qpmax=69 / qpstep=4 / cplxblur=20.0 / qblur=0.5 / ip_ratio=1.40 / pb_ratio=1.30 / aq=1:1.00
Default : Да
Forced : Нет

Аудио
Идентификатор : 2
Формат : AC-3
Формат/Информация : Audio Coding 3
Расширение режима : CM (complete main)
Параметр Endianness формата : Big
Идентификатор кодека : A_AC3
Продолжительность : 1 ч. 8 м.
Вид битрейта : Постоянный
Битрейт : 192 Кбит/сек
Каналы : 2 канала
Расположение каналов : Front: L R
Частота : 48,0 КГц
Частота кадров : 31,250 кадров/сек (1536 spf)
Метод сжатия : С потерями
Размер потока : 93,5 Мбайт (8%)
Default : Да
Forced : Нет
pb.wtf



Скачать Алёша Птицын вырабатывает характер через торрент http://s017.radikal.ru/i427/1601/f9/b9fccf516c7e.png Скачать фильм Алёша Птицын вырабатывает характер через торрент бесплантно в хорошем качестве Описание:По одноименной повести А.Барто. Ученик третьего класса Алёша решил заняться самовоспитанием: не поддаваться соблазнам и жить по ... 10 10 4
Info! Золотая раздача, скачанное не засчитывается.
Торрент: Зарегистрирован [2016-01-18 11:51] · скачан: 32 раз
Статус: √ проверено
Размер: 1.09 GB
Как cкачать? Как скачать Алёша Птицын вырабатывает характер через торрент | qTorrent

% Раздел Тема Автор DL S | L
Кино СССР [ 744 MB ] Алёша Птицын вырабатывает характер [1953 СССР DVDRip от AVP Studio] AVP Studio Скачать
2 | 0
Кино СССР [ 1.09 GB ] Алёша Птицын вырабатывает характер [1953 СССР DVDRip от AVP Studio] AVP Studio Скачать
1 | 0
    Дорогой пользователь! Огромная просьба, поблагодарите релизера, оцените раздачу и оставьте свои комментарий, если Вы скачали Алёша Птицын вырабатывает характер через торрент бесплатно! Внесите свою лепту в развитие PiratBit!
    Комментировать посты могут только пользователи прошедшие не сложную регистрацию
    Показать сообщения:    

    Алёша Птицын вырабатывает характер через торрент
    Скачать бесплатно Алёша Птицын вырабатывает характер
    Алёша Птицын вырабатывает характер скачать торрент
    Алёша Птицын вырабатывает характер смотреть онлайн
    Cкачать фильм Алёша Птицын вырабатывает характер бесплатно
    Алёша Птицын вырабатывает характер скачать торрент в хорошем качестве
    Алёша Птицын вырабатывает характер смотреть онлайн бесплатно в хорошем качестве


    Вы не можете начинать темы
    Вы не можете отвечать на сообщения
    Вы не можете редактировать свои сообщения
    Вы не можете удалять свои сообщения
    Вы не можете голосовать в опросах
    Вы не можете прикреплять файлы к сообщениям
    Вы можете скачивать файлы