Лицензия

MVO

1

1 сезон

Лицензия

Лицензия

13

MVO

1 сезон

Ultimate

pack

Рекомендуем

30

Repack

ВАЖНО

ВАЖНО

Ghostwire

RePack

jed

RePack

fifa19

RePack

RDR2

RePack

NEED FOR SPEED™ PAYBACK

RePack

Кинопоиск HD

 Острые козырьки 6 сезон

6 сезон

FAR CRY 6

RePack

Лицензия

MVO

1

1 сезон

1 сезон

Лицензия

  

Легенды Крыма. Битва за Севастополь. (ОТР) [2015 г., Документальный, военный, DVB, Оригинальный]

Легенды Крыма. Битва за Севастополь. через торрент pb.wtf

Размер: 500 MB | Добавлен: 6 лет 8 мес. назад | Торрент скачан:70 раз
Смотреть онлайн Легенды Крыма. Битва за Севастополь. | Скачать   

18-01-2016 13:26 Легенды Крыма. Битва за Севастополь. Скачать торрент  

Легенды Крыма. Битва за Севастополь.

Год выпуска: 2015
Страна: Россия
Жанр: Документальный, военный
Продолжительность: 00:25:33
Перевод: Оригинальный

Режиссер: ОТР

Описание: Эта серия рассказывает о героической обороне города в Великую Отечественную войну. Мы покажем места боевой славы города, уникальную кинохронику, документы и фотографии тех дней.
Оборона Севастополя является одной из самых драматичных страниц Великой Отечественной войны. На площади Нахимова сегодня стоит мемориал героической обороны Севастополя 1941-1942 гг. Такой же стеной встал Севастополь на пути врага. Осада немецко-фашистскими войсками длилась 250 дней. За это время фашисты предприняли три штурма города, сбросили на город бомб и выпустили снарядов больше, чем за всю 2-ю мировую войну на всю Европу! В июне 1942 г. напряженность боев достигла наивысшего предела. К концу этого месяца фашистам удалось полностью блокировать Севастополь и с моря, и с воздуха. В ночь на 1 июля поступило распоряжение Ставки об оставлении Севастополя и эвакуации войск. Но эвакуироваться удалось очень немногим... Советские войска 9 мая 1944 г. освободили Севастополь.

Качество: DVB
Формат: TS
Видео кодек: AVC
Аудио кодек: AAC
Видео: AVC, 720x576 (16:9), 25.000 fps, 2 405 Kbps (0.232 bit/pixel)
Аудио: MP2, 48.0 KHz, 2 ch, 192 Kbps, CBR (Russian)

Код:

Формат                                   : MPEG-TS
Размер файла                             : 500 Мбайт
Продолжительность                        : 25 м.
Режим общего битрейта                    : Переменный
Общий поток                              : 2734 Кбит/сек

Видео
Идентификатор                            : 1091 (0x443)
Идентификатор меню                       : 1090 (0x442)
Формат                                   : AVC
Формат/Информация                        : Advanced Video Codec
Профиль формата                          : [email protected]
Параметр CABAC формата                   : Да
Параметр ReFrames формата                : 3 кадра
Параметр GOP формата                     : M=4, N=28
Идентификатор кодека                     : 27
Продолжительность                        : 25 м.
Битрейт                                  : 2405 Кбит/сек
Ширина                                   : 720 пикселей
Высота                                   : 576 пикселей
Соотношение сторон                       : 16:9
Частота кадров                           : 25,000 кадров/сек
Стандарт вещания                         : Component
Цветовое пространство                    : YUV
Субдискретизация насыщенности            : 4:2:0
Битовая глубина                          : 8 бит
Тип развёртки                            : Чересстрочная
Порядок развёртки                        : Верхнее поле первое
Бит/(Пиксели*Кадры)                      : 0.232
Размер потока                            : 440 Мбайт (88%)
Цветовой диапазон                        : Limited
Основные цвета                           : BT.601 PAL
Характеристики трансфера                 : BT.470 System B, BT.470 System G
Коэффициенты матрицы                     : BT.601

Аудио
Идентификатор                            : 1092 (0x444)
Идентификатор меню                       : 1090 (0x442)
Формат                                   : MPEG Audio
Версия формата                           : Version 1
Профиль формата                          : Layer 2
Идентификатор кодека                     : 3
Продолжительность                        : 25 м.
Вид битрейта                             : Постоянный
Битрейт                                  : 192 Кбит/сек
Каналы                                   : 2 канала
Частота                                  : 48,0 КГц
Метод сжатия                             : С потерями
Задержка видео                           : 31 мс.
Размер потока                            : 35,1 Мбайт (7%)
Язык                                     : Russian
Язык, дополнительно                      : Clean effects




Скачать Легенды Крыма. Битва за Севастополь. через торрент http://i.imgur.com/fj7qFxL.png Скачать, смотреть онлайн Легенды Крыма. Битва за Севастополь. бесплантно в хорошем качестве Описание: Эта серия рассказывает о героической обороне города в Великую Отечественную войну. Мы покажем места боевой славы города, ... 6.4 10 5
Торрент: Зарегистрирован [2016-01-18 13:26] · скачан: 70 раз
Статус: √ проверено
Размер: 500 MB
Как cкачать? Как скачать Легенды Крыма. Битва за Севастополь. через торрент | UTorrent

28-11-2019 20:33  

Отключить вcю реклaмy на сайте

    Дорогой пользователь! Огромная просьба, поблагодарите релизера, оцените раздачу и оставьте свои комментарий, если Вы скачали Легенды Крыма. Битва за Севастополь. через торрент бесплатно!!
    Комментировать посты могут только пользователи прошедшие не сложную регистрацию
    Показать сообщения:    


    Легенды Крыма. Битва за Севастополь. через торрент
    Скачать бесплатно Легенды Крыма. Битва за Севастополь.
    Легенды Крыма. Битва за Севастополь. скачать торрент
    Легенды Крыма. Битва за Севастополь. смотреть онлайн
    Cкачать фильм Легенды Крыма. Битва за Севастополь. бесплатно
    Легенды Крыма. Битва за Севастополь. скачать торрент в хорошем качестве
    Легенды Крыма. Битва за Севастополь. смотреть онлайн бесплатно в хорошем качестве
    Вы не можете начинать темы
    Вы не можете отвечать на сообщения
    Вы не можете редактировать свои сообщения
    Вы не можете удалять свои сообщения
    Вы не можете голосовать в опросах
    Вы не можете прикреплять файлы к сообщениям
    Вы можете скачивать файлы