Ссылка на приватное зеркало нашего сайта всего за 1$. Внимание количество ограничено!!!

2 сезон

iTunes

1 сезон

1

iTunes

iTunes

iTunes

1 сезон

RePack

30

ИГРА 18+

pack

ВАЖНО

!!Акция!!

Alien_RageХит недели

RePack

MK11
pack

Забери бонус

RePack

jed

!!Акция!!

Alien_Rage

RePack

fifa19

RePack

Assassins Creed: Odyssey

RePack

NEED FOR SPEED™ PAYBACK

4 сезон

9 сезон

Бесстыжие 9 сезон

Все сериалы

все сериалы на PB.wtf

RePack

FAR CRY 5
  

Бабник / Spread (Дэвид Маккензи / David Mackenzie) [2009, драма, мелодрама, комедия, BDRip-AVC от potroks] DUB pb.wtf

Бабник через торрент pb.wtf

Раздают: 1 [ 13 KB/s ]
Размер: 1.46 GB | Добавлен: 4 года 9 мес. назад | Торрент скачан:270 раз
Скачать  

18-01-2016 15:14 Бабник Скачать торрент  

Бабник / Spread
«Доставляю удовольствие. Дорого»
Год выпуска: 2009
Страна: США / Barbarian Films, Katalyst Films, Oceana Media Finance
Жанр: драма, мелодрама, комедия
Продолжительность: 01:37:04
Перевод: Дубляж
Субтитры: русские
Навигация по главам: есть
Режиссер: Дэвид Маккензи / David Mackenzie
В ролях:

Эштон Кутчер (Nikki), Энн Хеч (Samantha), Маргарита Левиева (Heather), Себастьян Стэн (Harry), Эшли Джонсон (Eva), Соня Роквэлл (Christina), Рейчел Блэнчард (Emily), Шэйн Бролли (Prince Stelio), Эрик Бальфур (Sean), Мария Кончита Алонсо (Ingrid), Дерек Картер (Delivery Guy), Джордан Блэк (Kevin)
Описание: Никки молод, неотразим и пользуется безотказным вниманием представительниц противоположного пола. Его роман с Самантой основан исключительно на взаимном интересе. Никки интересует ее кредитная карточка и шикарный особняк, а успешную, но одинокую Саманту - безудержный дикий секс. Но когда Никки встречает Хизер, у циничного жиголо что-то переключается в голове и в сердце...

Качество: BDRip-AVC
Формат: MKV
Видео кодек: AVC
Аудио кодек: AC3
Видео: AVC, 984x410 (2.40:1), 1707 kbps, 23,976 fps, 0,176 bit/pixel
Аудио: AC3 / 5.1 / 48 kHz / 448 kbps / 16 bit

Релиз группы:
Автор рипа: potroks

Код:

General
Unique ID                                : 183080480735004600189454896088954972179 (0x89BC049C2CB3E3389F7AE95627B42813)
Complete name                            : N:\Драма\Babnik.2009.RUS.BDRip.x264.-HELLYWOOD.mkv
Format                                   : Matroska
Format version                           : Version 4 / Version 2
File size                                : 1.46 GiB
Duration                                 : 1h 37mn
Overall bit rate                         : 2 157 Kbps
Movie name                               : Spread (2009) - HELLYWOOD
Encoded date                             : UTC 2010-02-22 21:41:31
Writing application                      : mkvmerge v5.8.0 ('No Sleep / Pillow') built on Sep 30 2012 10:57:14
Writing library                          : libebml v1.3.0 + libmatroska v1.4.0

Video
ID                                       : 1
Format                                   : AVC
Format/Info                              : Advanced Video Codec
Format profile                           : High@L4.1
Format settings, CABAC                   : Yes
Format settings, ReFrames                : 12 frames
Codec ID                                 : V_MPEG4/ISO/AVC
Duration                                 : 1h 37mn
Bit rate                                 : 1 707 Kbps
Width                                    : 984 pixels
Height                                   : 410 pixels
Display aspect ratio                     : 2.40:1
Frame rate                               : 23.976 fps
Color space                              : YUV
Chroma subsampling                       : 4:2:0
Bit depth                                : 8 bits
Scan type                                : Progressive
Bits/(Pixel*Frame)                       : 0.176
Stream size                              : 1.13 GiB (77%)
Title                                    : potroks
Writing library                          : x264 core 146 r2538 121396c
Encoding settings                        : cabac=1 / ref=12 / deblock=1:-2:-2 / analyse=0x3:0x113 / me=umh / subme=11 / psy=1 / psy_rd=1.00:0.05 / mixed_ref=1 / me_range=48 / chroma_me=1 / trellis=2 / 8x8dct=1 / cqm=0 / deadzone=21,11 / fast_pskip=0 / chroma_qp_offset=-3 / threads=9 / lookahead_threads=2 / sliced_threads=0 / nr=0 / decimate=1 / interlaced=0 / bluray_compat=0 / constrained_intra=0 / bframes=13 / b_pyramid=2 / b_adapt=2 / b_bias=0 / direct=3 / weightb=1 / open_gop=0 / weightp=2 / keyint=240 / keyint_min=23 / scenecut=40 / intra_refresh=0 / rc_lookahead=60 / rc=2pass / mbtree=0 / bitrate=1707 / ratetol=1.0 / qcomp=0.70 / qpmin=0 / qpmax=69 / qpstep=4 / cplxblur=20.0 / qblur=0.5 / vbv_maxrate=14000 / vbv_bufsize=14000 / nal_hrd=none / filler=0 / ip_ratio=1.40 / pb_ratio=1.30 / aq=1:0.80
Language                                 : English
Default                                  : Yes
Forced                                   : No

Audio
ID                                       : 2
Format                                   : AC-3
Format/Info                              : Audio Coding 3
Mode extension                           : CM (complete main)
Codec ID                                 : A_AC3
Duration                                 : 1h 37mn
Bit rate mode                            : Constant
Bit rate                                 : 448 Kbps
Channel(s)                               : 6 channels
Channel positions                        : Front: L C R, Side: L R, LFE
Sampling rate                            : 48.0 KHz
Bit depth                                : 16 bits
Compression mode                         : Lossy
Stream size                              : 311 MiB (21%)
Title                                    : Dub | DD 5.1 @ 448 kbps
Language                                 : Russian
Default                                  : Yes
Forced                                   : No

Text
ID                                       : 3
Format                                   : UTF-8
Codec ID                                 : S_TEXT/UTF8
Codec ID/Info                            : UTF-8 Plain Text
Language                                 : Russian
Default                                  : No
Forced                                   : No

Menu
00:00:00.000                             : en:Main Title / One Pick Up Line
00:07:20.921                             : en:Creating Equity
00:14:16.878                             : en:The Mice Will Party
00:20:07.436                             : en:Sorry for Getting Caught
00:28:51.168                             : en:No Coffee, No Hikes
00:35:31.359                             : en:Hustling the Hustler
00:46:21.050                             : en:6 Inches & A Pretty Face
00:50:57.701                             : en:Homeless and Friendless
01:00:51.002                             : en:Kissing a lot of Frogs
01:13:54.410                             : en:A Moment of Clarity
01:20:51.410                             : en:A Five for the Grocery Boy
01:30:51.885                             : en:End Credits

pb.wtf



Скачать Бабник через торрент http://i74.fastpic.ru/big/2016/0118/b0/3b60b0e9f430ccd5749097e7bb99e8b0.png Скачать фильм Бабник через торрент бесплантно в хорошем качестве Описание: Никки молод, неотразим и пользуется безотказным вниманием представительниц противоположного пола. Его роман с Самантой основан ... 5.5 10 2
Info! Золотая раздача, скачанное не засчитывается.
Торрент: Зарегистрирован [2016-01-18 15:14] · скачан: 270 раз
Статус: √ проверено
Размер: 1.46 GB
Как cкачать? Как скачать Бабник через торрент | qTorrent

% Раздел Тема Автор DL S | L
Фильмы 2009 [ 1.58 GB ] Бабник / Spread [2009 HDRip-AVC] DUB -=BIGBOSS=- Скачать
1 | 0
Фильмы 2009 [ 1.76 GB ] Бабник / Spread [2009 BDRip] DUB + Original -=BIGBOSS=- Скачать
1 | 0

28-11-2019 20:33  

Отключить всю рекламу на сайте

    Дорогой пользователь! Огромная просьба, поблагодарите релизера, оцените раздачу и оставьте свои комментарий, если Вы скачали Бабник через торрент бесплатно! Внесите свою лепту в развитие PiratBit!
    Комментировать посты могут только пользователи прошедшие не сложную регистрацию
    Показать сообщения:    

    Бабник через торрент
    Скачать бесплатно Бабник
    Бабник скачать торрент
    Бабник смотреть онлайн
    Cкачать фильм Бабник бесплатно
    Бабник скачать торрент в хорошем качестве
    Бабник смотреть онлайн бесплатно в хорошем качестве


    Вы не можете начинать темы
    Вы не можете отвечать на сообщения
    Вы не можете редактировать свои сообщения
    Вы не можете удалять свои сообщения
    Вы не можете голосовать в опросах
    Вы не можете прикреплять файлы к сообщениям
    Вы можете скачивать файлы