Ссылка на приватное зеркало нашего сайта всего за 1$. Внимание количество ограничено!!!

2 сезон

iTunes

1 сезон

1

2 сезон

2 сезон

iTunes

1 сезон

RePack

30

Ultimate

ВАЖНО

ИГРА 18+

pack

RePack

MK11
pack

Забери бонус

RePack

jed

!!Акция!!

Alien_Rage

RePack

fifa19

RePack

Assassins Creed: Odyssey

RePack

NEED FOR SPEED™ PAYBACK

4 сезон

9 сезон

Бесстыжие 9 сезон

Все сериалы

все сериалы на PB.wtf

RePack

FAR CRY 5
  

Ангел из ада / Angel from Hell / Сезон: 1 / Серии 1-5 из 10 (Дон Скардино, Джей Карас) [2015 г., Комедия, WEB-DLRip] MVO BaibaKo pb.wtf

Ангел из ада через торрент pb.wtf

Размер: 1.44 GB | Добавлен: 4 года 9 мес. назад | Торрент скачан:2 раза
Скачать  

18-01-2016 16:23 Ангел из ада Скачать торрент  

Ангел из ада / Angel from Hell

Год выпуска: 2016
Страна: США
Жанр: Комедия
Продолжительность: ~ 00:22:00 х 5
Перевод: Профессиональный (многоголосый, закадровый) BaibaKo
Реклама: В релизе присутствует реклама казино




Режиссер: Дон Скардино, Джей Карас
Сценарий: Тад Куилл
Продюссер: Джон Мирик, Тад Куилл
Оператор: Дж. Кларк Мэтис
Композитор: Бекки Нюбул, Гэбриел Манн
Художники: Сьюзэн Михалек, Сэнди Струт




Сезон : 1
Серии : 1-5 из 10




Премьера в мире: 7 января 2016









В ролях:

Джейн Линч, Джинджер Гонзага, Мэгги Лосон, Дэвид Денман, Грег Кромер, Кайл Борнхаймер, Кевин Поллак, Лиза Лапира, Андреа Розен




Описание: Спокойная жизнь врача по имени Эллисон меняется, когда она встречает на рынке эксцентричную особу Эми.. Новая знакомая утверждает, что является ангелом-хранителем Эллисон, так что отныне две совершенно непохожие женщины становятся близкими подругами.. Однако дружба героинь комедийного сериала «Ангел из ада» не похожа на прочие подобные отношения, так как Эллисон не до конца уверена — действительно ли Эми ее ангел-хранитель или же она просто сумасшедшая..




Качество: WEB-DLRip
Формат: AVI
Видео кодек: XviD
Аудио кодек: MP3
Видео: AVC / 720x400 / 23.976fps / ~ 1500 kbps
Аудио#2: Русский - MP3 / 48.0 KHz / 2 ch / 192 kbps
Аудио#3: Английский - MP3 / 48.0 KHz / 2 ch / 192 kbps
Субтитры: Нет


Код:

Внимание! Раздача ведётся путём добавления новых серий; при каждом добавлении создаётся новый торрент. Чтобы начать докачку новой серии, пользователям необходимо сделать следующее:
(1) остановить скачивание,
(2) удалить старый торрент у себя из клиента (старые серии удалять не надо),
(3) скачать новый торрент и запустить его у себя в клиенте вместо старого, при этом указать клиенту путь в старую папку куда и должно происходить скачивание новых серий.
Ваш клиент при этом должен произвести хеширование (проверку) старой папки (если не производит сам - помогите ему сделать это), и будет докачивать только те серии которых у вас ещё нет. Старые серии при этом не удаляются, а продолжают раздаваться!
Eсли вы уже удалили старые серии, то предотвратить повторную закачку старых серий можно, отжав галочку в соответствующих местах при запуске нового торрента. По возможности, желательно не удалять старые серии как можно дольше чтобы релизёр не столько продолжал раздавать старые серии, а смог сконцентрироваться на новых.

скриншот   скриншот   скриншот   скриншот   скриншот  


General
Complete name : D:\Angel.from.Hell.s01.WEB-DLRip.XviD\Angel.from.Hell.s01e01.WEB-DLRip.XviD.Rus.Eng.BaibaKo.tv.avi
Format : AVI
Format/Info : Audio Video Interleave
File size : 295 MiB
Duration : 21mn 47s
Overall bit rate : 1 891 Kbps

Video #0
ID : 0
Format : MPEG-4 Visual
Format profile : Advanced Simple@L5
Format settings, BVOP : 2
Format settings, QPel : No
Format settings, GMC : No warppoints
Format settings, Matrix : Default (H.263)
Codec ID : XVID
Codec ID/Hint : XviD
Duration : 21mn 47s
Bit rate : 1 500 Kbps
Width : 720 pixels
Height : 400 pixels
Display aspect ratio : 16:9
Frame rate : 23.976 fps
Color space : YUV
Chroma subsampling : 4:2:0
Bit depth : 8 bits
Scan type : Progressive
Compression mode : Lossy
Bits/(Pixel*Frame) : 0.217
Stream size : 234 MiB (79%)
Writing library : XviD 65

Audio #1
ID : 1
Format : MPEG Audio
Format version : Version 1
Format profile : Layer 3
Mode : Joint stereo
Mode extension : MS Stereo
Codec ID : 55
Codec ID/Hint : MP3
Duration : 21mn 47s
Bit rate mode : Constant
Bit rate : 192 Kbps
Channel(s) : 2 channels
Sampling rate : 48.0 KHz
Compression mode : Lossy
Stream size : 29.9 MiB (10%)
Alignment : Aligned on interleaves
Interleave, duration : 167 ms (4.00 video frames)
Interleave, preload duration : 216 ms
Title : Angel.from.Hell.s01e01.Russian
Writing library : LAME3.99r
Encoding settings : -m j -V 4 -q 3 -lowpass 18.6 -b 192

Audio #2
ID : 2
Format : MPEG Audio
Format version : Version 1
Format profile : Layer 3
Mode : Joint stereo
Mode extension : MS Stereo
Codec ID : 55
Codec ID/Hint : MP3
Duration : 21mn 47s
Bit rate mode : Constant
Bit rate : 192 Kbps
Channel(s) : 2 channels
Sampling rate : 48.0 KHz
Compression mode : Lossy
Stream size : 29.9 MiB (10%)
Alignment : Aligned on interleaves
Interleave, duration : 167 ms (4.00 video frames)
Interleave, preload duration : 216 ms
Title : Angel.from.Hell.s01e01.English
Writing library : LAME3.99r
Encoding settings : -m j -V 4 -q 3 -lowpass 18.6 -b 192
_Добавлена 5 серия.. (09.02.2016) Просьба перекачать торрент файл..
_

pb.wtf



Скачать Ангел из ада через торрент http://pic.kartinco.top/images/11/cbt34.jpg Скачать фильм Ангел из ада через торрент бесплантно в хорошем качестве Описание: Спокойная жизнь врача по имени Эллисон меняется, когда она встречает на рынке эксцентричную особу Эми.. Новая знакомая ... 10 10 2
Info! Серебряная раздача, засчитывается только 50% скачанного.
Торрент: Зарегистрирован [2016-02-09 06:33] · скачан: 2 раз
Статус: √ проверено
Размер: 1.44 GB
Как cкачать? Как скачать Ангел из ада через торрент | qTorrent

% Раздел Тема Автор DL S | L
Зарубежные сериалы [ 3.62 GB ] Ангел из ада / Angel from Hell / Сезон: 1 / Серии 1-5 из 10 [2015 WEB-DL 720p] MVO BaibaKo MicroCharmelle Скачать
1 | 0


Последний раз редактировалось: MicroCharmelle (2016-02-09 06:33), всего редактировалось 3 раз(а)

28-11-2019 20:33  

Отключить всю рекламу на сайте

20-01-2016 20:40 Ангел из ада Скачать торрент  

как фильм?pb.wtf



25-01-2016 06:28 Ангел из ада Скачать торрент  

ничего хорошегоpb.wtf



    Дорогой пользователь! Огромная просьба, поблагодарите релизера, оцените раздачу и оставьте свои комментарий, если Вы скачали Ангел из ада через торрент бесплатно! Внесите свою лепту в развитие PiratBit!
    Комментировать посты могут только пользователи прошедшие не сложную регистрацию
    Показать сообщения:    

    Ангел из ада через торрент
    Скачать бесплатно Ангел из ада
    Ангел из ада скачать торрент
    Ангел из ада смотреть онлайн
    Cкачать фильм Ангел из ада бесплатно
    Ангел из ада скачать торрент в хорошем качестве
    Ангел из ада смотреть онлайн бесплатно в хорошем качестве


    Вы не можете начинать темы
    Вы не можете отвечать на сообщения
    Вы не можете редактировать свои сообщения
    Вы не можете удалять свои сообщения
    Вы не можете голосовать в опросах
    Вы не можете прикреплять файлы к сообщениям
    Вы можете скачивать файлы