Ссылка на приватное зеркало всего за 1$. Внимание количество ограничено!!!

OK

1+1

iTunes

мы

OK

1

WEB-DLRip

Джокер

Пифагор

Ведьмак / The Witcher сериал

iTunes

ПШазам

ОК

Оно 2

iTunes

30
pack

Вам бонус

ВАЖНО

!!Акция!!

Alien_RageХит недели

RePack

Resident Evil 21

ИГРА 18+

pack

RePack

jed

RePack

fifa19

RePack

Assassins Creed: Odyssey

RePack

NEED FOR SPEED™ PAYBACK

4 сезон

9 сезон

Бесстыжие 9 сезон

Все сериалы

все сериалы на PB.wtf

RePack

FAR CRY 5
  

Легенда / Legend (Брайан Хелгеленд) [2015 г., криминал, триллер, драма, HDRip, Дубляж "iTunes"] pb.wtf

Легенда через торрент pb.wtf

Размер: 2.19 GB | Добавлен: 4 года назад | Торрент скачан:94 раза
Скачать  

18-01-2016 18:48 Легенда Скачать торрент  

Легенда / Legend
Год выпуска: 2015
Страна: Великобритания, Франция / Cross Creek Pictures, Working Title Films, Anton Capital Entertainment (ACE)
Жанр: криминал, триллер, драма
Продолжительность: 02:11:02
Перевод: Дубляж (iTunes)

Режиссер: Брайан Хелгеленд

IMDB 7.30 (23 422)


В ролях: Том Харди, Эмили Браунинг, Дэвид Тьюлис, Даффи, Кристофер Экклстон, Чазз Пальминтери, Колин Морган, Джошуа Хилл, Пол Андерсон, Тара Фитцджеральд

Описание: Фильм расскажет историю близнецов Реджи и Ронни Крэй, культовых фигур преступного мира Великобритании 1960-х. Братья возглавляли самую влиятельную бандитскую группировку Ист-Энда. В их послужном списке: вооруженные грабежи, рэкет, поджоги, покушения, убийства и собственный ночной клуб, куда доезжали даже голливудские знаменитости. Среди их жертв — криминальные авторитеты Джек МакВитти и Джордж Корнелл.

Качество: HDRip
Формат: AVI
Видео кодек: XviD
Аудио кодек: AC3
Видео: 720x304 (2.37:1), 24.000 fps, XviD build 50 ~2003 kbps avg, 0.38 bit/pixel
Аудио: 48 kHz, AC3 Dolby Digital, 3/2 (L,C,R,l,r) + LFE ch, ~384 kbps

Общее
Полное имя : F:\кино\Легенда.2015.D.HDRip.avi
Формат : AVI
Формат/Информация : Audio Video Interleave
Профиль формата : OpenDML
Размер файла : 2,19 Гбайт
Продолжительность : 2 ч. 11 м.
Общий поток : 2394 Кбит/сек
Программа кодирования : VirtualDubMod 1.5.10.3 | www.virtualdub-fr.org || (build 2550/release)
Библиотека кодирования : VirtualDubMod build 2550/release

Видео
Идентификатор : 0
Формат : MPEG-4 Visual
Профиль формата : Advanced Simple@L5
Параметр BVOP формата : 2
Параметр QPel формата : Нет
Параметр GMC формата : Без точки перехода
Параметр матрицы формата : Default (H.263)
Идентификатор кодека : XVID
Идентификатор кодека/Подсказка : XviD
Продолжительность : 2 ч. 11 м.
Битрейт : 1998 Кбит/сек
Ширина : 720 пикселей
Высота : 304 пикселя
Соотношение сторон : 2,35:1
Частота кадров : 24,000 кадра/сек
Цветовое пространство : YUV
Субдискретизация насыщенности : 4:2:0
Битовая глубина : 8 бит
Тип развёртки : Прогрессивная
Метод сжатия : С потерями
Бит/(Пиксели*Кадры) : 0.380
Размер потока : 1,83 Гбайт (83%)
Библиотека кодирования : XviD 1.2.1 (UTC 2008-12-04)

Аудио
Идентификатор : 1
Формат : AC-3
Формат/Информация : Audio Coding 3
Расширение режима : CM (complete main)
Параметр Endianness формата : Big
Идентификатор кодека : 2000
Продолжительность : 2 ч. 11 м.
Вид битрейта : Постоянный
Битрейт : 384 Кбит/сек
Каналы : 6 каналов
Расположение каналов : Front: L C R, Side: L R, LFE
Частота : 48,0 КГц
Частота кадров : 31,250 кадров/сек (1536 spf)
Метод сжатия : С потерями
Размер потока : 360 Мбайт (16%)
Выравнивание : Разделение по промежуткам
Продолжительность промежутка : 42 мс. (1,00 видеокадр)
Время предзагрузки промежутка : 500 мс.

pb.wtf



Скачать Легенда через торрент http://i67.fastpic.ru/big/2016/0118/9f/e8ad612daf22b6d0ba35a9a3dff0319f.jpg Скачать фильм Легенда через торрент бесплантно в хорошем качестве Описание: Фильм расскажет историю близнецов Реджи и Ронни Крэй, культовых фигур преступного мира Великобритании 1960-х. Братья возглавляли ... 9.7 10 3
Торрент: Зарегистрирован [2016-01-18 18:48] · скачан: 94 раз
Статус: √ проверено
Размер: 2.19 GB
Как cкачать? Как скачать Легенда через торрент | qTorrent

% Раздел Тема Автор DL S | L
Фильмы 2006-2008 [ 4.85 GB ] Я - легенда / I Am Legend [2007 BDRip 720p] [Альтернативная версия / Alternative Cut] Stargate_Universe Скачать
1 | 0
Фильмы до 2000 г. [ 2.2 GB ] Легенда о пианисте / La Leggenda Del Pianista Sull'Oceano [1998 музыка BDRip] [Полная версия] [AVO] killermax2013 Скачать
1 | 0
MMORPG [ 3.39 GB ] League of Legends / Лига Легенд [Eu Noedic & East Server] [L] [ENG] [лицензияENGMOBA RTS Action RPG] Peenky Скачать
1 | 0
Аниме [DVDrip, WEB-DLRip, HDrip] [ 3.93 GB ] Аватар: Легенда о Корре / The Legend of Korra [2013 мультфильм WEB-DLRip Любительский многоголосый] Моряк Скачать
1 | 0
Фильмы до 2000 г. [ 2.18 GB ] Легенды осени / Legends of the Fall [1994 военный BDRip] DUB + Sub -=Cherry=- Скачать
2 | 0
Фильмы [HD 720p, 1080p] (Звук Cam, VO, DVO) [ 8.91 GB ] Легенды: Гробница дракона / Legendary: Tomb of the Dragon [2013 BDRip 1080p] VO Ворон Скачать
1 | 0
Иностранные мультфильмы [ 1.33 GB ] Скуби-Ду! И легенда о вампире / Scooby-Doo! And the Legend of the Vampire [2003 мультфильм DVDRip] Виталий2020 Скачать
1 | 0

28-11-2019 20:33  

Отключить всю рекламу на сайте

    Дорогой пользователь! Огромная просьба, поблагодарите релизера, оцените раздачу и оставьте свои комментарий, если Вы скачали Легенда через торрент бесплатно! Внесите свою лепту в развитие PiratBit!
    Комментировать посты могут только пользователи прошедшие не сложную регистрацию
    Показать сообщения:    

    Легенда через торрент
    Скачать бесплатно Легенда
    Легенда скачать торрент
    Легенда смотреть онлайн
    Cкачать фильм Легенда бесплатно
    Легенда скачать торрент в хорошем качестве
    Легенда смотреть онлайн бесплатно в хорошем качестве


    Вы не можете начинать темы
    Вы не можете отвечать на сообщения
    Вы не можете редактировать свои сообщения
    Вы не можете удалять свои сообщения
    Вы не можете голосовать в опросах
    Вы не можете прикреплять файлы к сообщениям
    Вы можете скачивать файлы