Ссылка на приватное зеркало нашего сайта всего за 1$. Внимание количество ограничено!!!

2 сезон

iTunes

1 сезон

1

iTunes

iTunes

iTunes

1 сезон

RePack

30

ИГРА 18+

pack

ВАЖНО

!!Акция!!

Alien_RageХит недели

RePack

MK11
pack

Забери бонус

RePack

jed

!!Акция!!

Alien_Rage

RePack

fifa19

RePack

Assassins Creed: Odyssey

RePack

NEED FOR SPEED™ PAYBACK

4 сезон

9 сезон

Бесстыжие 9 сезон

Все сериалы

все сериалы на PB.wtf

RePack

FAR CRY 5
  

Время дочерей / Серии: 8 из 8 (Роман Барабаш) [2013, Россия, Мелодрама, WEB-DL 1080p] pb.wtf

Время дочерей через торрент pb.wtf

Размер: 6.81 GB | Добавлен: 4 года 9 мес. назад | Торрент скачан:145 раз
Скачать  

18-01-2016 19:47 Время дочерей Скачать торрент  

Информация о фильме

Оригинальное название: Время дочерей

Год выпуска: 2013

Жанр: Мелодрама

Продолжительность: ~ 00:45:00

Язык: Русский

Выпущено: Россия, Кинокомпания Русское

Режиссер: Роман Барабаш

В ролях: Алина Кизиярова, Анна Колобаева, Роман Рипко, Анатолий Котенёв, Анна Якунина, Александр Соколовский, Дмитрий Гусев, Наталья Подсолнух, Александр Кузнецов, Дмитрий Блажко, Анна Багмет, Елена Антипова, Валерий Громовиков, Иван Михайловский, Олег Масленников-Войтов, Алена Фалалеева, Таисия Шипилова, Борис Эстрин, Артём Кобзев, Виталий Шевелев, Сергей Волков (III), Валентин Варецкий, Александр Серов-Останкинский, Светлана Йозефий, Алексей Белоус, Сергей Неудачин, Евгений Березовский, Юлия Соколова (III), Ефим Петрунин, Константин Новиков (II)

Описание: Вероника Рыжова, главная героиня сериала «Время дочерей», окончила московский университет и настал тот счастливый день, когда она получит заветный диплом. Чтобы разделить эту радость вместе с Вероникой, из Петербурга прилетели её приемные родители Валера и Нина. Но случается ужасное: по дороге из аэропорта, в такси, в котором ехали родители девушки, на огромной скорости въезжает автомобиль, принадлежащий корпорации «Life-Инвест», а точнее её владельцу - бизнесмену Сергею Ковтуну. И Вероника во второй раз в жизни оказывается сиротой, причём в гибели её родителей снова виноват Ковтун. Девушка, немного оправившись от тяжёлого удара, клянётся отомстить бизнесмену и, сняв квартиру, остаётся в Москве. Следующим её шагом становится смена фамилии Рыжова на Антонову, фамилию её первых родителей. И теперь молодой специалист Вероника Антонова идёт устраиваться в компанию Ковтуна, горя лишь одним желанием - подобраться поближе к человеку, виновного в гибели её родителей...

Качество: WEB-DL 1080p
Формат: MKV
Видео: MPEG-4 AVC, ~ 2 689 Kbps, 1920x1080, 25.000 fps
Аудио: AAC, 2 ch, 126 Kbps, 48.0 KHz
General
Complete name : D:\Торенты\Время дочерей.WEB-DLRip(1080p)\08.Seriya.WEB-DLRip(1080p).mp4
Format : MPEG-4
Format profile : Base Media
Codec ID : isom (isom/iso2/avc1/mp41)
File size : 908 MiB
Duration : 45mn 1s
Overall bit rate : 2 820 Kbps
Writing application : Lavf57.2.100

Video
ID : 1
Format : AVC
Format/Info : Advanced Video Codec
Format profile : High@L4
Format settings, CABAC : Yes
Format settings, ReFrames : 2 frames
Codec ID : avc1
Codec ID/Info : Advanced Video Coding
Duration : 45mn 1s
Bit rate : 2 689 Kbps
Width : 1 920 pixels
Height : 1 080 pixels
Display aspect ratio : 16:9
Frame rate mode : Constant
Frame rate : 25.000 fps
Color space : YUV
Chroma subsampling : 4:2:0
Bit depth : 8 bits
Scan type : Progressive
Bits/(Pixel*Frame) : 0.052
Stream size : 866 MiB (95%)
Color range : Limited
Color primaries : BT.709
Transfer characteristics : BT.709
Matrix coefficients : BT.709

Audio
ID : 2
Format : AAC
Format/Info : Advanced Audio Codec
Format profile : LC
Codec ID : 40
Duration : 45mn 1s
Bit rate mode : Constant
Bit rate : 126 Kbps
Channel(s) : 2 channels
Channel positions : Front: L R
Sampling rate : 44.1 KHz
Frame rate : 43.066 fps (1024 spf)
Compression mode : Lossy
Stream size : 40.5 MiB (4%)
Default : Yes
Alternate group : 1
pb.wtf



Скачать Время дочерей через торрент http://6.firepic.org/6/images/2016-01/12/c79dcytezklz.jpg Скачать фильм Время дочерей через торрент бесплантно в хорошем качестве Описание: Вероника Рыжова, главная героиня сериала «Время дочерей», окончила московский университет и настал тот счастливый день, когда ... 10 10 3
Торрент: Зарегистрирован [2016-01-18 19:47] · скачан: 145 раз
Статус: √ проверено
Размер: 6.81 GB
Как cкачать? Как скачать Время дочерей через торрент | qTorrent

28-11-2019 20:33  

Отключить всю рекламу на сайте

    Дорогой пользователь! Огромная просьба, поблагодарите релизера, оцените раздачу и оставьте свои комментарий, если Вы скачали Время дочерей через торрент бесплатно! Внесите свою лепту в развитие PiratBit!
    Комментировать посты могут только пользователи прошедшие не сложную регистрацию
    Показать сообщения:    

    Время дочерей через торрент
    Скачать бесплатно Время дочерей
    Время дочерей скачать торрент
    Время дочерей смотреть онлайн
    Cкачать фильм Время дочерей бесплатно
    Время дочерей скачать торрент в хорошем качестве
    Время дочерей смотреть онлайн бесплатно в хорошем качестве


    Вы не можете начинать темы
    Вы не можете отвечать на сообщения
    Вы не можете редактировать свои сообщения
    Вы не можете удалять свои сообщения
    Вы не можете голосовать в опросах
    Вы не можете прикреплять файлы к сообщениям
    Вы можете скачивать файлы