Ссылка на приватное зеркало нашего сайта всего за 1$. Внимание количество ограничено!!!

2 сезон

iTunes

1 сезон

1

2 сезон

2 сезон

iTunes

1 сезон

RePack

30

Новинка

ВАЖНО

ИГРА 18+

pack

RePack

MK11
pack

Забери бонус

RePack

jed

!!Акция!!

Alien_Rage

RePack

fifa19

RePack

Assassins Creed: Odyssey

RePack

NEED FOR SPEED™ PAYBACK

4 сезон

9 сезон

Бесстыжие 9 сезон

Все сериалы

все сериалы на PB.wtf

RePack

FAR CRY 5
  

Иерихон / Jericho (2016) / Сезон: 1 / Серии 1-8 из 8 [2016 г., исторический, драма, мелодрама, WEB-DL 720p] MVO (FocusStudio) pb.wtf

Иерихон через торрент pb.wtf

Размер: 11.82 GB | Добавлен: 4 года 7 мес. назад | Торрент скачан:20 раз
Скачать  

18-01-2016 20:22 Иерихон Скачать торрент  


Иерихон / Jericho


ИНФОРМАЦИЯ:
Год выпуска:2016
Страна: Великобритания
Жанр: драма
Продолжительность: 01:05:07
Перевод: Профессиональный (многоголосый) FocusStudio
Режиссер: Роберт МакКиллоп, Дэйв Мур, Пол Уиттингтон

В Ролях:


Ганс Мэтисон (Johnny Jackson), Кларк Питерс (Ralph Coates), Джессика Рэйн (Annie Quaintain), Amy Kelly (Martha Polly), Сэмюэл Боттомли (George Quaintain), Фил Корнуэлл (Joe Capstick), Софи Томпсон (Lizzie Capstick), Дэниэл Ригби (Charles Blackwood), Стивен Томпсон (Davey Sharpe), Джини Спарк (Isabella Lambton), Лоррейн Эшборн (Lace Polly), Натали Гэвин (Alma Capstick)

Описание:
В раннее неизведанные места приходит цивилизация. Городок Иерихон, находящийся в долинах Йоркшира, становится домом для общины, которая живет, процветает и проживает жизнь в тени строящегося виадука.

  • Мировая премьера:7 января 2016

    ТЕХ.ДАННЫЕ:
    Качество: WEB-DL 720p
    Формат: MKV
    Видео: AVC, 960@1280x720 (16:9), 3957 kbps, 25 fps, 0,229 bpp
    Аудио №1: русский / AC3 / 2.0 / 48 kHz / 192 kbps / 16 bit ||
    Аудио №2: английский / AC3 / 2.0 / 48 kHz / 192 kbps / 16 bit


    General
    Unique ID : 109017644702499246457284004971223145600 (0x520408DE2945A8C045ED80D602775C80)
    Complete name : D:\Торенты\Jericho.2016.S01.WEB-DL.720p.FocusStudio\Jericho.S01E01.WEB-DL.720p.FocusStudio.mkv
    Format : Matroska
    Format version : Version 4 / Version 2
    File size : 2.02 GiB
    Duration : 1h 5mn
    Overall bit rate : 4 430 Kbps
    Movie name : Jericho 1x1 @ FocusStudio
    Encoded date : UTC 2016-01-16 07:32:01
    Writing application : mkvmerge v8.5.2 ('Crosses') 64bit
    Writing library : libebml v1.3.3 + libmatroska v1.4.4

    Video
    ID : 1
    Format : AVC
    Format/Info : Advanced Video Codec
    Format profile : Main@L3.1
    Format settings, CABAC : No
    Format settings, ReFrames : 2 frames
    Codec ID : V_MPEG4/ISO/AVC
    Duration : 1h 5mn
    Bit rate : 3 958 Kbps
    Width : 960 pixels
    Height : 720 pixels
    Display aspect ratio : 16:9
    Frame rate : 25.000 fps
    Color space : YUV
    Chroma subsampling : 4:2:0
    Bit depth : 8 bits
    Scan type : Progressive
    Bits/(Pixel*Frame) : 0.229
    Stream size : 1.80 GiB (89%)
    Language : English
    Default : Yes
    Forced : No
    Color primaries : BT.709-5, BT.1361, IEC 61966-2-4, SMPTE RP177
    Transfer characteristics : BT.709-5, BT.1361
    Matrix coefficients : BT.709-5, BT.1361, IEC 61966-2-4 709, SMPTE RP177

    Audio #1
    ID : 2
    Format : AC-3
    Format/Info : Audio Coding 3
    Mode extension : CM (complete main)
    Codec ID : A_AC3
    Duration : 1h 5mn
    Bit rate mode : Constant
    Bit rate : 192 Kbps
    Channel(s) : 2 channels
    Channel positions : Front: L R
    Sampling rate : 48.0 KHz
    Bit depth : 16 bits
    Compression mode : Lossy
    Stream size : 89.4 MiB (4%)
    Title : MVO FocusStudio
    Language : Russian
    Default : Yes
    Forced : No

    Audio #2
    ID : 3
    Format : AC-3
    Format/Info : Audio Coding 3
    Mode extension : CM (complete main)
    Codec ID : A_AC3
    Duration : 1h 5mn
    Bit rate mode : Constant
    Bit rate : 192 Kbps
    Channel(s) : 2 channels
    Channel positions : Front: L R
    Sampling rate : 48.0 KHz
    Bit depth : 16 bits
    Compression mode : Lossy
    Stream size : 89.4 MiB (4%)
    Language : English
    Default : No
    Forced : No
    Внимание! Раздача ведётся путём добавления новых серий; при каждом добавлении создётся новый торрент. Чтобы начать докачку новой серии, пользователям необходимо сделать следующее:
    (1) остановить скачивание,
    (2) удалить старый торрент у себя из клиента (старые серии удалять не надо),
    (3) скачать новый торрент и запустить его у себя в клиенте вместо старого, при этом указать клиенту путь в старую папку куда и должно происходить скачивание новых серий.
    Ваш клиент при этом должен произвести хеширование (проверку) старой папки (если не производит сам - помогите ему сделать это), и будет докачивать только те серии которых у вас ещё нет. Старые серии при этом не удаляются, а продолжают раздаваться!
    Eсли вы уже удалили старые серии, то предотвратить повторную закачку старых серий можно, отжав галочку в соответсвующих местах при запуске нового торрента. По возможности, желательно не удалять старые серии как можно дольше чтобы релизёр не столько продолжал раздавать старые серии, а смог сконцентрироваться на новых.
    Скриншоты:

    © Оформление by .::Ворон::.
    pb.wtf



  • Скачать Иерихон через торрент http://pic.kartinco.top/images/6/ordi9.jpg Скачать фильм Иерихон через торрент бесплантно в хорошем качестве Описание: В раннее неизведанные места приходит цивилизация. Городок Иерихон, находящийся в долинах Йоркшира, становится домом для общины, ... 7.7 10 3
    Info! Золотая раздача, скачанное не засчитывается.
    Торрент: Зарегистрирован [2016-04-03 06:32] · скачан: 20 раз
    Статус: √ проверено
    Размер: 11.82 GB
    Как cкачать? Как скачать Иерихон через торрент | qTorrent

    % Раздел Тема Автор DL S | L
    Классика зарубежного кино [ 9.83 GB ] Трудная ночь в Иерихоне / Rough Night in Jericho [1967 BDRip 1080p by msltel] AVO msltel Скачать
    1 | 0
    Классика зарубежного кино [ 3.75 GB ] Трудная ночь в Иерихоне / Rough Night in Jericho [1967 BDRip 720p by msltel] AVO msltel Скачать
    1 | 0
    Зарубежные сериалы [ 16.99 GB ] Иерихон / Jericho / 1-2 Сезон Серии 1-29 из 29 [2006-2008 HDTVRip] MVO mihis Скачать
    2 | 0
    Зарубежные сериалы [ 11.44 GB ] Иерихон.Сезон.1-2 / Jericho [2008 / HDTV MVO] 666gtr666 Скачать
    1 | 0
    Зарубежные сериалы [ 8.74 GB ] Иерихон. Город обреченных Сезон: 1 Эпизод 1-22 / Jericho [2006 / DVDRip] DEVI Скачать
    1 | 0
    Зарубежные сериалы [ 2.7 GB ] Иерихон / Jericho Сезон: 2 Эпизод 1-7 [2008 / HDTVRip] DEVI Скачать
    1 | 0


    Последний раз редактировалось: Messa-fan (2016-04-03 06:32), всего редактировалось 4 раз(а)

    28-11-2019 20:33  

    Отключить всю рекламу на сайте

    20-01-2016 21:04 Иерихон Скачать торрент  

    +02pb.wtf



    27-01-2016 15:03 Иерихон Скачать торрент  

    +03pb.wtf



    27-01-2016 17:57 Иерихон Скачать торрент  

    А я думал экранизация Clive Barker’s Jericho :))). Во думаю жара будет ))).
    Clive Barker's Jericho pb.wtf



    04-02-2016 19:19 Иерихон Скачать торрент  

    +04pb.wtf



    04-02-2016 21:11 Иерихон Скачать торрент  

    А я думал продолжение того сериала про ядерную войну, он тоже Иерихон звался.pb.wtf



    03-04-2016 07:42 Иерихон Скачать торрент  

    Messa-fan писал(а):

    +02

    а я ниче не думалpb.wtf



      Дорогой пользователь! Огромная просьба, поблагодарите релизера, оцените раздачу и оставьте свои комментарий, если Вы скачали Иерихон через торрент бесплатно! Внесите свою лепту в развитие PiratBit!
      Комментировать посты могут только пользователи прошедшие не сложную регистрацию
      Показать сообщения:    

      Иерихон через торрент
      Скачать бесплатно Иерихон
      Иерихон скачать торрент
      Иерихон смотреть онлайн
      Cкачать фильм Иерихон бесплатно
      Иерихон скачать торрент в хорошем качестве
      Иерихон смотреть онлайн бесплатно в хорошем качестве


      Вы не можете начинать темы
      Вы не можете отвечать на сообщения
      Вы не можете редактировать свои сообщения
      Вы не можете удалять свои сообщения
      Вы не можете голосовать в опросах
      Вы не можете прикреплять файлы к сообщениям
      Вы можете скачивать файлы