Ссылка на приватное зеркало нашего сайта всего за 1$. Внимание количество ограничено!!!

2 сезон

iTunes

1 сезон

1

2 сезон

2 сезон

iTunes

1 сезон

RePack

30

Ultimate

ВАЖНО

ИГРА 18+

pack

RePack

MK11
pack

Забери бонус

RePack

jed

!!Акция!!

Alien_Rage

RePack

fifa19

RePack

Assassins Creed: Odyssey

RePack

NEED FOR SPEED™ PAYBACK

4 сезон

9 сезон

Бесстыжие 9 сезон

Все сериалы

все сериалы на PB.wtf

RePack

FAR CRY 5
  

Версаль / Versailles / Сезон: 1 / Серии 1-10 из 10 (Дэниэл Роби, Кристоф Шреве, Жалиль Леспер) [2015 г., драма, биография, история, HDRip] MVO BaibaKo pb.wtf

Версаль через торрент pb.wtf

Размер: 7.71 GB | Добавлен: 4 года 8 мес. назад | Торрент скачан:58 раз
Скачать  

19-01-2016 03:58 Версаль Скачать торрент  

Версаль / Versailles

Год выпуска: 2015
Страна: Франция, Канада
Жанр: Драма, биография, история
Продолжительность: ~ 00:54:00 х 10
Перевод: Профессиональный (многоголосый, закадровый) BaibaKo
Реклама: В релизе присутствует реклама казино




Режиссер: Дэниэл Роби, Кристоф Шреве, Жалиль Леспер
Сценарий: Саймон Миррен, Дэвид Волстенкрофт, Эндрю Бампфилд
Продюссер:Од Альбано, Claude Albouze, Жан Бьюро
Оператор: Пьер-Ив Бастард
Композитор: Eduardo Noya Schreus
Художники: Катя Вышкоп, Мадлин Фонтен
Монтаж: Майк Фроментин, Сара Андерсон, Жан-Франсуа Эли




Сезон : 1
Серии : 1-10 из 10




Премьера в мире: 16 ноября 2015









В ролях:

Дордж Благден, Александр Влахос, Тай Рунян, Стюарт Боуман, Ивэн Уильямс, Анна Брюстер, Лиззи Брошере, Анатоль Таубман, Стив Кьюмин




Описание: Людовик XIV взошел на престол, когда ему было 4 года.. Многие годы Францией управлял совет министров, возглавляемый его матерью.. Теперь она мертва и у знати с каждым днем все больше власти.. Чтобы выжить, Людовику необходимо с чистого листа выстроить новую Влacть, вдалеке от Парижа.. В деревушке под названием… Версаль..




Качество: HDRip
Формат: AVI
Видео кодек: XviD
Аудио кодек: MP3
Видео: XviD / 720x400 / 25.000 fps / ~ 1500 kbps
Аудио#2: Русский - MP3 / 48.0 KHz / 2 ch / 192 kbps
Аудио#3: Французский - MP3 / 48.0 KHz / 2 ch / 192 kbps
Аудио#3: Английский - MP3 / 48.0 KHz / 2 ch / 192 kbps
Субтитры: Нет






скриншот   скриншот   скриншот   скриншот   скриншот  


General
Complete name : D:\Versailles.s01e01.BDRip.XviD\Versailles.s01e01.BDRip.XviD.Rus.Fre.Eng.BaibaKo.tv.avi
Format : AVI
Format/Info : Audio Video Interleave
File size : 816 MiB
Duration : 54mn 42s
Overall bit rate : 2 084 Kbps

Video #0
ID : 0
Format : MPEG-4 Visual
Format profile : Advanced Simple@L5
Format settings, BVOP : 2
Format settings, QPel : No
Format settings, GMC : No warppoints
Format settings, Matrix : Default (H.263)
Codec ID : XVID
Codec ID/Hint : XviD
Duration : 54mn 42s
Bit rate : 1 500 Kbps
Width : 720 pixels
Height : 400 pixels
Display aspect ratio : 16:9
Frame rate : 25.000 fps
Color space : YUV
Chroma subsampling : 4:2:0
Bit depth : 8 bits
Scan type : Progressive
Compression mode : Lossy
Bits/(Pixel*Frame) : 0.208
Stream size : 587 MiB (72%)
Writing library : XviD 65

Audio #1
ID : 1
Format : MPEG Audio
Format version : Version 1
Format profile : Layer 3
Mode : Joint stereo
Mode extension : MS Stereo
Codec ID : 55
Codec ID/Hint : MP3
Duration : 54mn 42s
Bit rate mode : Constant
Bit rate : 192 Kbps
Channel(s) : 2 channels
Sampling rate : 48.0 KHz
Compression mode : Lossy
Stream size : 75.1 MiB (9%)
Alignment : Aligned on interleaves
Interleave, duration : 160 ms (4.00 video frames)
Interleave, preload duration : 216 ms
Title : Versailles-101-russian-BD
Writing library : LAME3.98.4

Audio #2
ID : 2
Format : MPEG Audio
Format version : Version 1
Format profile : Layer 3
Mode : Joint stereo
Mode extension : MS Stereo
Codec ID : 55
Codec ID/Hint : MP3
Duration : 54mn 42s
Bit rate mode : Constant
Bit rate : 192 Kbps
Channel(s) : 2 channels
Sampling rate : 48.0 KHz
Compression mode : Lossy
Stream size : 75.1 MiB (9%)
Alignment : Aligned on interleaves
Interleave, duration : 160 ms (4.00 video frames)
Interleave, preload duration : 216 ms
Title : Versailles.2015.S01E01 FR Casino-x1-14.515-4236 720-25 Dts 5.1 1536-1_Joined
Writing library : LAME3.98.4

Audio #3
ID : 3
Format : MPEG Audio
Format version : Version 1
Format profile : Layer 3
Mode : Joint stereo
Mode extension : MS Stereo
Codec ID : 55
Codec ID/Hint : MP3
Duration : 54mn 42s
Bit rate mode : Constant
Bit rate : 192 Kbps
Channel(s) : 2 channels
Sampling rate : 48.0 KHz
Compression mode : Lossy
Stream size : 75.1 MiB (9%)
Alignment : Aligned on interleaves
Interleave, duration : 160 ms (4.00 video frames)
Interleave, preload duration : 216 ms
Title : Versailles.2015.S01E01 ENG Casino-x1-14.515-8476 1080-25 Dts 5.1 1536-1_Joined
Writing library : LAME3.98.4


Внимание! Раздача ведётся путём добавления новых серий; при каждом добавлении создётся новый торрент. Чтобы начать докачку новой серии, пользователям необходимо сделать следующее:

  • Остановить скачивание,

  • Удалить старый торрент у себя из клиента (старые серии удалять не надо),

  • Скачать новый торрент и запустить его у себя в клиенте вместо старого, при этом указать клиенту путь в старую папку куда и должно происходить скачивание новых серий.

    Ваш клиент при этом должен произвести хеширование (проверку) старой папки (если не производит сам - помогите ему сделать это), и будет докачивать только те серии которых у вас ещё нет. Старые серии при этом не удаляются, а продолжают раздаваться!

    Eсли вы уже удалили старые серии, то предотвратить повторную закачку старых серий можно, отжав галочку в соответсвующих местах при запуске нового торрента. По возможности, желательно не удалять старые серии как можно дольше чтобы релизёр не столько продолжал раздавать старые серии, а смог сконцентрироваться на новых.

  • _Добавлена 6-10 серия.. (14.03.2016) Финал сезона.. Просьба перекачать торрент файл..
    _

    pb.wtf



    Скачать Версаль через торрент http://pic.kartinco.top/images/11/3o5ib.jpg Скачать фильм Версаль через торрент бесплантно в хорошем качестве Описание: Людовик XIV взошел на престол, когда ему было 4 года.. Многие годы Францией управлял совет министров, возглавляемый его матерью.. ... 10 10 6
    Info! Золотая раздача, скачанное не засчитывается.
    Торрент: Зарегистрирован [2016-03-14 11:10] · скачан: 58 раз
    Статус: √ проверено
    Размер: 7.71 GB
    Как cкачать? Как скачать Версаль через торрент | qTorrent

    % Раздел Тема Автор DL S | L
    Зарубежные сериалы [ 11.82 GB ] Версаль / Versailles / Сезон: 1 / Серии 1-10 из 10 [2015 биография история HDRip-AVC] MVO [BaibaKo] + ENG + FRE GEKADOL Скачать
    1 | 0
    Зарубежные сериалы [ 7.5 GB ] Версаль / Versailles / Сезон: 1 / Серии 1-10 из 10 [2015 биография история HDRip-AVC] MVO BaibaKo MicroCharmelle Скачать
    1 | 0


    Последний раз редактировалось: MicroCharmelle (2016-03-14 11:09), всего редактировалось 6 раз(а)

    28-11-2019 20:33  

    Отключить всю рекламу на сайте

    19-01-2016 16:07 Версаль Скачать торрент  

    Автор, заметила у вас две ошибки! Описание и название на английском языке из совершенно другого сериала - Ангел из ада!pb.wtf



    19-01-2016 16:08 Версаль Скачать торрент  

    3я ошибка - список актеров - также из сериала Ангел из адаpb.wtf



    20-01-2016 19:42 Версаль Скачать торрент  

    5-й скриншот нивелирует все ошибки в оформлении)pb.wtf



    26-01-2016 20:33 Версаль Скачать торрент  

    Отличное начало! Ждем дальше.pb.wtf



    07-03-2016 14:02 Версаль Скачать торрент  

    Скриншоты должны быть сделаны с раздаваемого материала.pb.wtf



      Дорогой пользователь! Огромная просьба, поблагодарите релизера, оцените раздачу и оставьте свои комментарий, если Вы скачали Версаль через торрент бесплатно! Внесите свою лепту в развитие PiratBit!
      Комментировать посты могут только пользователи прошедшие не сложную регистрацию
      Показать сообщения:    

      Версаль через торрент
      Скачать бесплатно Версаль
      Версаль скачать торрент
      Версаль смотреть онлайн
      Cкачать фильм Версаль бесплатно
      Версаль скачать торрент в хорошем качестве
      Версаль смотреть онлайн бесплатно в хорошем качестве


      Вы не можете начинать темы
      Вы не можете отвечать на сообщения
      Вы не можете редактировать свои сообщения
      Вы не можете удалять свои сообщения
      Вы не можете голосовать в опросах
      Вы не можете прикреплять файлы к сообщениям
      Вы можете скачивать файлы