Ссылка на приватное зеркало всего за 1$. Внимание количество ограничено!!!

iTunes

1+1

iTunes

мы

WEB-DL

1

iTunes

Чернобыль

iTunes

Ральф против интернета

Лицензия

ПШазам

Лицензия

Оно 2

Лицензия

30
pack

Вам бонус

ВАЖНО

!!Акция!!

Alien_RageХит недели

RePack

Resident Evil 21

ИГРА 18+

pack

RePack

jed

!!Акция!!

Alien_Rage

RePack

fifa19

RePack

Assassins Creed: Odyssey

RePack

NEED FOR SPEED™ PAYBACK

3 сезон

9 сезон

Бесстыжие 9 сезон

Все сериалы

все сериалы на PB.wtf

RePack

FAR CRY 5
Ребята, катастрофически не хватает 1900р. для оплаты серверов за Октябрь (всвязи с блокировками трафик упал в 3 раза), 1-2р., выручайте.
  

Застава в горах (Константин Юдин) [1953, СССР, приключения, SATRip от AVP Studio] pb.wtf

Застава в горах через торрент pb.wtf

Размер: 1.46 GB | Добавлен: 3 года 10 мес. назад | Торрент скачан:21 раз
Скачать  

19-01-2016 10:58 Застава в горах Скачать торрент  

Застава в горах
Страна: СССР
Производство: МОСФИЛЬМ

Жанр: приключения
Год выпуска: 1953
Продолжительность: 01:36:55

Перевод: Не требуется
Cубтитры: нет
Оригинальная аудиодорожка: русский

Режиссер: Константин Юдин

В ролях:
Владлен Давыдов, Марина Кузнецова, Елена Шатрова, Сергей Гурзо (старший), Станислав Чекан, Аркадий Щербаков, Александр Суснин, Михаил Майоров, Борис Попов, Лев Лобов, Мухаммеджан Касымов, Владимир Белокуров, Олег Солюс, Алексей Краснопольский, Георгий Черноволенко...
Полный список актёров

Описание:
Из Москвы на погранзаставу приезжает старший лейтенант Лунин и назначается заместителем начальника. Герой быстро включается в боевую жизнь, а тем временем банда Исмаил-бека, оплачиваемая иностранной разведкой, активизирует свои действия....

Источник: DVB
Качество видео: SATRip
Формат видео: AVI

Видео: 688x512 (4:3), 25 fps, XviD ~ 1950 kbps avg, 0.221 bit/pixel
Аудио: 48 kHz, Dolby Digital AC3 2.0, 192 kbps

Раздача от:
Общее
Полное имя : Zastava.v.gorah.1953.SATRip_[New-team]_by_AVP_Studio.avi
Формат : AVI
Формат/Информация : Audio Video Interleave
Размер файла : 1,46 Гбайт
Продолжительность : 1 ч. 36 м.
Общий поток : 2152 Кбит/сек
Программа кодирования : VirtualDubMod 1.5.10.3 | www.virtualdub-fr.org || (build 2550/release)
Библиотека кодирования : VirtualDubMod build 2550/release

Видео
Идентификатор : 0
Формат : MPEG-4 Visual
Профиль формата : Advanced Simple@L5
Параметр BVOP формата : 1
Параметр QPel формата : Нет
Параметр GMC формата : Без точки перехода
Параметр матрицы формата : Выборочная
Идентификатор кодека : XVID
Идентификатор кодека/Подсказка : XviD
Продолжительность : 1 ч. 36 м.
Битрейт : 1950 Кбит/сек
Ширина : 688 пикселей
Высота : 512 пикселей
Соотношение сторон : 4:3
Частота кадров : 25,000 кадров/сек
Цветовое пространство : YUV
Субдискретизация насыщенности : 4:2:0
Битовая глубина : 8 бит
Тип развёртки : Прогрессивная
Метод сжатия : С потерями
Бит/(Пиксели*Кадры) : 0.221
Размер потока : 1,32 Гбайт (91%)
Библиотека кодирования : XviD 1.2.1 (UTC 2008-12-04)

Аудио
Идентификатор : 1
Формат : MPEG Audio
Версия формата : Version 1
Профиль формата : Layer 2
Идентификатор кодека : 50
Продолжительность : 1 ч. 36 м.
Вид битрейта : Постоянный
Битрейт : 192 Кбит/сек
Каналы : 2 канала
Частота : 48,0 КГц
Метод сжатия : С потерями
Размер потока : 133 Мбайт (9%)
Выравнивание : Соединение по промежуткам
Продолжительность промежутка : 40 мс. (1,00 видеокадр)
Время предзагрузки промежутка : 504 мс
pb.wtf



Скачать Застава в горах через торрент http://s018.radikal.ru/i520/1601/92/8dadb7514e4e.png Скачать фильм Застава в горах через торрент бесплантно в хорошем качестве Описание:Из Москвы на погранзаставу приезжает старший лейтенант Лунин и назначается заместителем начальника. Герой быстро включается в ... 5 10 1
Info! Золотая раздача, скачанное не засчитывается.
Торрент: Зарегистрирован [2016-01-19 10:58] · скачан: 21 раз
Статус: √ проверено
Размер: 1.46 GB
Как cкачать? Как скачать Застава в горах через торрент | qTorrent

% Раздел Тема Автор DL S | L
Кино СССР [ 1.46 GB ] Застава в горах [1953 СССР SATRip-AVC от AVP Studio] AVP Studio Скачать
1 | 0
Кино СССР [ 744 MB ] Застава в горах [1953 СССР SATRip от AVP Studio] AVP Studio Скачать
1 | 0

28-11-2019 20:33  

Отключить всю рекламу на сайте

    Дорогой пользователь! Огромная просьба, поблагодарите релизера, оцените раздачу и оставьте свои комментарий, если Вы скачали Застава в горах через торрент бесплатно! Внесите свою лепту в развитие PiratBit!
    Комментировать посты могут только пользователи прошедшие не сложную регистрацию
    Показать сообщения:    

    Застава в горах через торрент
    Скачать бесплатно Застава в горах
    Застава в горах скачать торрент
    Застава в горах смотреть онлайн
    Cкачать фильм Застава в горах бесплатно
    Застава в горах скачать торрент в хорошем качестве
    Застава в горах смотреть онлайн бесплатно в хорошем качестве


    Вы не можете начинать темы
    Вы не можете отвечать на сообщения
    Вы не можете редактировать свои сообщения
    Вы не можете удалять свои сообщения
    Вы не можете голосовать в опросах
    Вы не можете прикреплять файлы к сообщениям
    Вы можете скачивать файлы