Мега распродажа FORZA HORIZON 4 ULTIMATE+ВСЕ DLC+ОНЛАЙН всего за 499р. 349 руб. (супер цена). Внимание количество ограничено!!!

iTunes

1+1

iTunes

мы

iTunes

1

1 сезон

Чернобыль

1 сезон

Ральф против интернета

Лицензия

ПШазам

8 сезон

Игра престолов

Лицензия

30
pack

ВАЖНО

!!Акция!!

Alien_RageХит недели

RePack

Resident Evil 21

ИГРА 18+

pack

RePack

Metro:Exodus

!!Акция!!

Alien_Rage

RePack

fifa19

RePack

Assassins Creed: Odyssey

RePack

NEED FOR SPEED™ PAYBACK

3 сезон

9 сезон

Бесстыжие 9 сезон

Все сериалы

все сериалы на PB.wtf

RePack

FAR CRY 5
Ребята, катастрофически не хватает 2730р. для оплаты серверов за ИЮНЬ (всвязи с блокировками трафик упал в 3 раза), 1-2р., выручайте.
  

Как справиться с отцом / Getting Even with Dad (Ховард Дойч) [1994 г., комедия, криминал, семейный, DVDRip-AVC, MVO СТС, AVO Вартан Дохалов + Original] pb.wtf

Как справиться с отцом через торрент pb.wtf

Размер: 2.17 GB | Добавлен: 3 года 5 мес. назад | Торрент скачан:38 раз
Скачать  

19-01-2016 13:15 Как справиться с отцом Скачать торрент  

Как справиться с отцом / Getting Even with Dad
Год выпуска: 1994
Страна: США
Жанр: комедия, криминал, семейный
Продолжительность: 01:48:00
Перевод: Профессиональный (многоголосый) СТС, Авторский (одноголосый) - Вартан Дохалов

Режиссер: Ховард Дойч
Продюссер: Пирс Гарднер, Кэти Джейкобс, Ричард Хашимото
Сценарий: Том С. Паркер, Джим Дженниуайн

Бюджет: $30 000 000
Премьера в мире: 17 июня 1994

IMDB 4.60 (5802)


В ролях: Маколей Калкин, Тед Дэнсон, Гленн Хедли, Сол Рубинек, Гейлард Сартейн, Сэм МакМюррей, Гектор Элизондо, Сидни Уолкер, Кэтлин Уилхойт, Дэнн Флорек, Андрей Анненский, Владимир Антоник, Любовь Германова, Леонид Белозорович, Андрей Мартынов

Описание: За воровство и мошенничество Рэй не раз попадал в тюрьму, поэтому ему некогда было воспитывать сына. К тому же жена его умерла. Его 11-летний Тимми находился у сестры Рэя Китти. Рэй со своими сообщниками продумали план очередного «дела». И тут, совсем некстати, Китти решила очередной раз выйти замуж, а потому привезла Тимми к папе...

Качество: DVDRip-AVC
Формат: MKV
Видео кодек:AVC
Аудио кодек: AC3
Видео: h.264, 716x480, битрейт: 2280 Kbps, Bits/(Pixel*Frame) : 0.277
Аудио 1: AC3 2.0, 48 KHz, битрейт аудио: 192 кб/с - Многоголосный, СТС
Аудио 2: AC3 2.0, 48 KHz, битрейт аудио: 192 кб/с - Авторский, Дохалов
Аудио 3: AC3 2.0, 48 KHz, битрейт аудио: 192 кб/с - Английский
Формат : Matroska
Формат version : Version 2
Размер файла : 2.17 GiB
Длительность : 1h 48mn
Общий Битрейт : 2 858 Kbps
Movie name : Как справиться с отцом [1994, DVDRip/AVC] || big1987
Encoded date : UTC 2012-01-16 03:34:11
Создано приложением : mkvmerge v5.0.1 ('Es ist Sommer') built on Nov 6 2011 16:23:40
Writing library : libebml v1.2.2 + libmatroska v1.3.0
Video
ID : 1
Формат : AVC
Формат/Info : Advanced Video Кодек
Формат profile : High@L3.1
Формат настройки, CABAC : Yes
Формат настройки, ReFrames : 9 frames
Кодек ID : V_MPEG4/ISO/AVC
Длительность : 1h 48mn
Битрейт : 2 280 Kbps
Width : 716 пикселей
Высота : 480 пикселей
Соотношение кадра : 4:3
Частота кадров : 23.976 fps
Цветопередача : YUV
Chroma subsampling : 4:2:0
Разрядность : 8 bits
Тип сканирования : Progressive
Bits/(Pixel*Frame) : 0.277
Размер потока : 1.69 GiB (78%)
Title : Как справиться с отцом [1994, DVDRip/AVC] || big1987
Writing library : x264 core 120 r2120 0c7dab9
Encoding настройки : cabac=1 / ref=9 / deblock=1:-3:-3 / analyse=0x3:0x133 / me=umh / subme=10 / psy=1 / psy_rd=1.00:0.20 / mixed_ref=1 / me_range=48 / chroma_me=1 / trellis=2 / 8x8dct=1 / cqm=0 / deadzone=21,11 / fast_pskip=1 / chroma_qp_offset=-3 / threads=6 / sliced_threads=0 / nr=0 / decimate=1 / interlaced=0 / bluray_compat=0 / constrained_intra=0 / bframes=4 / b_pyramid=2 / b_adapt=2 / b_bias=0 / direct=3 / weightb=1 / open_gop=0 / weightp=2 / keyint=250 / keyint_min=23 / scenecut=40 / intra_refresh=0 / rc_lookahead=60 / rc=2pass / mbtree=1 / bitrate=2280 / ratetol=1.0 / qcomp=0.60 / qpmin=0 / qpmax=69 / qpstep=4 / cplxblur=20.0 / qblur=0.5 / ip_ratio=1.40 / aq=1:1.00
Язык : English
Audio #1
ID : 2
Формат : AC-3
Формат/Info : Audio Coding 3
Расширение режима : CM (complete main)
Кодек ID : A_AC3
Длительность : 1h 48mn
Битрейт mode : Constant
Битрейт : 192 Kbps
Channel(s) : 2 канала
Channel positions : Front: L R
Частота : 48.0 KHz
Разрядность : 16 bits
Режим сжатия : Lossy
Delay relative to video : 24ms
Размер потока : 149 MiB (7%)
Title : MVO {CTC} [AC3 2.0@192kbps]
Язык : Russian
Audio #2
ID : 3
Формат : AC-3
Формат/Info : Audio Coding 3
Расширение режима : CM (complete main)
Кодек ID : A_AC3
Длительность : 1h 48mn
Битрейт mode : Constant
Битрейт : 192 Kbps
Channel(s) : 2 канала
Channel positions : Front: L R
Частота : 48.0 KHz
Разрядность : 16 bits
Режим сжатия : Lossy
Delay relative to video : 24ms
Размер потока : 149 MiB (7%)
Title : AVO {Дохалов} [AC3 2.0@192kbps]
Язык : Russian
Audio #3
ID : 4
Формат : AC-3
Формат/Info : Audio Coding 3
Формат profile : Dolby Digital
Расширение режима : CM (complete main)
Кодек ID : A_AC3
Длительность : 1h 48mn
Битрейт mode : Constant
Битрейт : 192 Kbps
Channel(s) : 2 канала
Channel positions : Front: L R
Частота : 48.0 KHz
Разрядность : 16 bits
Режим сжатия : Lossy
Delay relative to video : 24ms
Размер потока : 149 MiB (7%)
Title : [AC3 2.0@192kbps]
Язык : English

Как справиться с отцом скачать торрент

pb.wtf



Скачать Как справиться с отцом через торрент http://i75.fastpic.ru/big/2016/0119/74/84c75687d436cb087a2285570f1e1874.jpg Скачать фильм Как справиться с отцом через торрент бесплантно в хорошем качестве Описание: За воровство и мошенничество Рэй не раз попадал в тюрьму, поэтому ему некогда было воспитывать сына. К тому же жена его умерла. ... 10 10 2
Торрент: Зарегистрирован [2016-01-19 13:15] · скачан: 38 раз
Статус: √ проверено
Размер: 2.17 GB
Как cкачать? Как скачать Как справиться с отцом через торрент | qTorrent



Последний раз редактировалось: remijio (2016-01-19 14:16), всего редактировалось 1 раз


>> Регистрируемся здесь <<






Отзывы и комментарии о схеме читаем и пишем здесь: ---> Отзывы и комментарии о схеме

Новые благодарочки в телеграм довольных пользователей:
скриншот   скриншот   скриншот   скриншот   скриншот
    Дорогой пользователь! Огромная просьба, поблагодарите релизера, оцените раздачу и оставьте свои комментарий, если Вы скачали Как справиться с отцом через торрент бесплатно! Внесите свою лепту в развитие PiratBit!
    Комментировать посты могут только пользователи прошедшие не сложную регистрацию
    Показать сообщения:    

    Как справиться с отцом через торрент
    Скачать бесплатно Как справиться с отцом
    Как справиться с отцом скачать торрент
    Как справиться с отцом смотреть онлайн
    Cкачать фильм Как справиться с отцом бесплатно
    Как справиться с отцом скачать торрент в хорошем качестве
    Как справиться с отцом смотреть онлайн бесплатно в хорошем качестве


    Вы не можете начинать темы
    Вы не можете отвечать на сообщения
    Вы не можете редактировать свои сообщения
    Вы не можете удалять свои сообщения
    Вы не можете голосовать в опросах
    Вы не можете прикреплять файлы к сообщениям
    Вы можете скачивать файлы