Мега распродажа FORZA HORIZON 4 ULTIMATE+ВСЕ DLC+ОНЛАЙН всего за 499р. 349 руб. (супер цена). Внимание количество ограничено!!!

iTunes

1+1

iTunes

мы

iTunes

1

iTunes

Чернобыль

1 сезон

Ральф против интернета

Лицензия

ПШазам

Лицензия

Игра престолов

Лицензия

30
pack

ВАЖНО

!!Акция!!

Alien_RageХит недели

RePack

Resident Evil 21

ИГРА 18+

pack

RePack

Metro:Exodus

!!Акция!!

Alien_Rage

RePack

fifa19

RePack

Assassins Creed: Odyssey

RePack

NEED FOR SPEED™ PAYBACK

3 сезон

9 сезон

Бесстыжие 9 сезон

Все сериалы

все сериалы на PB.wtf

RePack

FAR CRY 5
Ребята, катастрофически не хватает 7730р. для оплаты серверов за ИЮЛЬ (всвязи с блокировками трафик упал в 3 раза), 1-2р., выручайте.
  

Бесславные ублюдки / Inglourious Basterds (Квентин Тарантино, Элай Рот) [2009 г., боевик, драма, комедия, военный, BDRip-AVC от potroks] DUB - BD CEE, AVO - Ю.Сербин pb.wtf

Бесславные ублюдки через торрент pb.wtf

Раздают: 5 [ 137 KB/s ] Качают: 2 [ 366 KB/s ]
Размер: 2.91 GB | Добавлен: 3 года 6 мес. назад | Торрент скачан:466 раз
Скачать  

20-01-2016 02:37 Бесславные ублюдки Скачать торрент  

Бесславные ублюдки / Inglourious Basterds
Год выпуска: 2009

Страна: США, Германия / Universal Pictures, A Band Apart, Lawrence Bender Productions, Studio Babelsberg...

Жанр: Приключения, драма, военный

Продолжительность: 02:32:52

Перевод: Профессиональный (дублированный)

Субтитры: Русские (форс. 2 вида + полные 2 вида), украинские, английские (форс. + полные)

Навигация по главам: Есть




Режиссер: Квентин Тарантино / Quentin Tarantino, Элай Рот / Eli Roth

В ролях: Брэд Питт, Кристоф Вальц, Мелани Лоран, Элай Рот, Майкл Фассбендер, Дайан Крюгер, Даниэль Брюль, Тиль Швайгер, Гедеон Буркхард, Джеки Идо

Описание: Вторая мировая война, в оккупированной немцами Франции группа американских солдат-евреев наводит страх на нацистов, жестоко убивая и скальпируя солдат.




Бюджет: $ 70 000 000









Качество: BDRip-AVC [BDRemux]

Формат: MKV

Видео: x.264, 1032x430 (2,40:1), 23,976 fps, 1568 Кbps, 0.147 bit/pixel

Аудио#1: 48 kHz, AC3 Dolby Digital, 3/2 (L,C,R,l,r) + LFE ch, 384.00 kbps | DUB - BD CEE

Аудио#2: 48 kHz, AC3 Dolby Digital, 3/2 (L,C,R,l,r) + LFE ch, 384.00 kbps | AVO - Ю.Сербин

Аудио#3: 48 kHz, AC3 Dolby Digital, 3/2 (L,C,R,l,r) + LFE ch, 384.00 kbps | ENG




Релиз от:

Автор рипа: potroks
General
Unique ID : 235825986331744942246232152168554113646 (0xB16A6ED0D636B69794C4E4673F592A6E)
Complete name : D:\Торенты\Besslavnyie.Ubljudki.2009.TRIPLE.BDRip.x264.-HELLYWOOD.mkv
Format : Matroska
Format version : Version 4 / Version 2
File size : 2.91 GiB
Duration : 2h 32mn
Overall bit rate : 2 722 Kbps
Movie name : HELLYWOOD - rip by potroks
Encoded date : UTC 2013-12-18 14:38:01
Writing application : mkvmerge v5.9.0 ('On The Loose') built on Dec 15 2012 16:39:58
Writing library : libebml v1.3.0 + libmatroska v1.4.0

Video
ID : 1
Format : AVC
Format/Info : Advanced Video Codec
Format profile : High@L4.1
Format settings, CABAC : Yes
Format settings, ReFrames : 10 frames
Codec ID : V_MPEG4/ISO/AVC
Duration : 2h 32mn
Bit rate : 1 568 Kbps
Width : 1 032 pixels
Height : 430 pixels
Display aspect ratio : 2.40:1
Frame rate mode : Constant
Frame rate : 23.976 fps
Color space : YUV
Chroma subsampling : 4:2:0
Bit depth : 8 bits
Scan type : Progressive
Bits/(Pixel*Frame) : 0.147
Stream size : 1.62 GiB (56%)
Title : Inglourious Basterds
Writing library : x264 core 130 r2273 b3065e6
Encoding settings : cabac=1 / ref=10 / deblock=1:-2:-2 / analyse=0x3:0x133 / me=umh / subme=11 / psy=1 / psy_rd=1.08:0.01 / mixed_ref=1 / me_range=48 / chroma_me=1 / trellis=2 / 8x8dct=1 / cqm=0 / deadzone=21,11 / fast_pskip=0 / chroma_qp_offset=-3 / threads=9 / lookahead_threads=6 / sliced_threads=0 / nr=0 / decimate=0 / interlaced=0 / bluray_compat=0 / constrained_intra=0 / bframes=11 / b_pyramid=2 / b_adapt=2 / b_bias=0 / direct=3 / weightb=1 / open_gop=0 / weightp=2 / keyint=250 / keyint_min=23 / scenecut=40 / intra_refresh=0 / rc_lookahead=60 / rc=2pass / mbtree=0 / bitrate=1568 / ratetol=1.0 / qcomp=0.70 / qpmin=0 / qpmax=69 / qpstep=4 / cplxblur=20.0 / qblur=0.5 / vbv_maxrate=20000 / vbv_bufsize=20000 / nal_hrd=none / ip_ratio=1.35 / pb_ratio=1.25 / aq=1:0.80
Language : English
Default : Yes
Forced : No

Audio #1
ID : 2
Format : AC-3
Format/Info : Audio Coding 3
Mode extension : CM (complete main)
Format settings, Endianness : Big
Codec ID : A_AC3
Duration : 2h 32mn
Bit rate mode : Constant
Bit rate : 384 Kbps
Channel(s) : 6 channels
Channel positions : Front: L C R, Side: L R, LFE
Sampling rate : 48.0 KHz
Frame rate : 31.250 fps (1536 spf)
Compression mode : Lossy
Stream size : 420 MiB (14%)
Title : Dub | DD 5.1 @ 384 kbps - BD CEE
Language : Russian
Default : Yes
Forced : Yes

Audio #2
ID : 3
Format : AC-3
Format/Info : Audio Coding 3
Mode extension : CM (complete main)
Format settings, Endianness : Big
Codec ID : A_AC3
Duration : 2h 32mn
Bit rate mode : Constant
Bit rate : 384 Kbps
Channel(s) : 6 channels
Channel positions : Front: L C R, Side: L R, LFE
Sampling rate : 48.0 KHz
Frame rate : 31.250 fps (1536 spf)
Compression mode : Lossy
Stream size : 420 MiB (14%)
Title : AVO | DD 5.1 @ 384 kbps - Ю.Сербин
Language : Russian
Default : No
Forced : No

Audio #3
ID : 4
Format : AC-3
Format/Info : Audio Coding 3
Mode extension : CM (complete main)
Format settings, Endianness : Big
Codec ID : A_AC3
Duration : 2h 32mn
Bit rate mode : Constant
Bit rate : 384 Kbps
Channel(s) : 6 channels
Channel positions : Front: L C R, Side: L R, LFE
Sampling rate : 48.0 KHz
Frame rate : 31.250 fps (1536 spf)
Compression mode : Lossy
Stream size : 420 MiB (14%)
Title : Original | DD 5.1 @ 384 kbps
Language : English
Default : No
Forced : No

Text #1
ID : 5
Format : UTF-8
Codec ID : S_TEXT/UTF8
Codec ID/Info : UTF-8 Plain Text
Title : Forced - Goblin
Language : Russian
Default : Yes
Forced : Yes

Text #2
ID : 6
Format : UTF-8
Codec ID : S_TEXT/UTF8
Codec ID/Info : UTF-8 Plain Text
Title : Forced - Voronine
Language : Russian
Default : No
Forced : No

Text #3
ID : 7
Format : UTF-8
Codec ID : S_TEXT/UTF8
Codec ID/Info : UTF-8 Plain Text
Title : Full - Goblin
Language : Russian
Default : No
Forced : No

Text #4
ID : 8
Format : UTF-8
Codec ID : S_TEXT/UTF8
Codec ID/Info : UTF-8 Plain Text
Title : Full - Voronine
Language : Russian
Default : No
Forced : No

Text #5
ID : 9
Format : UTF-8
Codec ID : S_TEXT/UTF8
Codec ID/Info : UTF-8 Plain Text
Language : Ukrainian
Default : No
Forced : No

Text #6
ID : 10
Format : UTF-8
Codec ID : S_TEXT/UTF8
Codec ID/Info : UTF-8 Plain Text
Title : Full
Language : English
Default : No
Forced : No

Text #7
ID : 11
Format : UTF-8
Codec ID : S_TEXT/UTF8
Codec ID/Info : UTF-8 Plain Text
Title : Forced
Language : English
Default : No
Forced : No

Menu
00:00:00.000 : en:(01)00:00:00:000
00:01:50.610 : en:(02)00:01:50:610
00:07:06.384 : en:(03)00:07:06:384
00:21:20.820 : en:(04)00:21:20:820
00:24:12.826 : en:(05)00:24:12:826
00:28:15.902 : en:(06)00:28:15:902
00:30:18.942 : en:(07)00:30:18:942
00:37:57.108 : en:(08)00:37:57:108
00:41:47.922 : en:(09)00:41:47:922
00:48:28.405 : en:(10)00:48:28:405
00:53:53.563 : en:(11)00:53:53:563
01:00:50.438 : en:(12)01:00:50:438
01:04:05.341 : en:(13)01:04:05:341
01:09:24.702 : en:(14)01:09:24:702
01:12:17.166 : en:(15)01:12:17:166
01:19:25.927 : en:(16)01:19:25:927
01:32:54.777 : en:(17)01:32:54:777
01:37:02.233 : en:(18)01:37:02:233
01:43:51.475 : en:(19)01:43:51:475
01:45:38.040 : en:(20)01:45:38:040
01:50:30.623 : en:(21)01:50:30:623
01:57:35.089 : en:(22)01:57:35:089
02:03:38.452 : en:(23)02:03:38:452
02:10:30.072 : en:(24)02:10:30:072
02:16:40.859 : en:(25)02:16:40:859
02:23:10.748 : en:(26)02:23:10:748
02:25:47.280 : en:(27)02:25:47:280
02:29:30.960 : en:(28)02:29:30:960
02:32:51.912 : en:(29)02:32:51:912
pb.wtf



Скачать Бесславные ублюдки через торрент http://s006.radikal.ru/i213/1312/a0/b08dbff111ef.png Скачать фильм Бесславные ублюдки через торрент бесплантно в хорошем качестве Описание: Вторая мировая война, в оккупированной немцами Франции группа американских солдат-евреев наводит страх на нацистов, жестоко ... 9.1 10 11
Info! Золотая раздача, скачанное не засчитывается.
Торрент: Зарегистрирован [2016-01-20 02:37] · скачан: 466 раз
Статус: √ проверено
Размер: 2.91 GB
Как cкачать? Как скачать Бесславные ублюдки через торрент | qTorrent


>> Регистрируемся здесь <<






Отзывы и комментарии о схеме читаем и пишем здесь: ---> Отзывы и комментарии о схеме

Новые благодарочки в телеграм довольных пользователей:
скриншот   скриншот   скриншот   скриншот   скриншот

01-03-2016 16:03 Бесславные ублюдки Скачать торрент  

спасибо за фильм!pb.wtf



    Дорогой пользователь! Огромная просьба, поблагодарите релизера, оцените раздачу и оставьте свои комментарий, если Вы скачали Бесславные ублюдки через торрент бесплатно! Внесите свою лепту в развитие PiratBit!
    Комментировать посты могут только пользователи прошедшие не сложную регистрацию
    Показать сообщения:    

    Бесславные ублюдки через торрент
    Скачать бесплатно Бесславные ублюдки
    Бесславные ублюдки скачать торрент
    Бесславные ублюдки смотреть онлайн
    Cкачать фильм Бесславные ублюдки бесплатно
    Бесславные ублюдки скачать торрент в хорошем качестве
    Бесславные ублюдки смотреть онлайн бесплатно в хорошем качестве


    Вы не можете начинать темы
    Вы не можете отвечать на сообщения
    Вы не можете редактировать свои сообщения
    Вы не можете удалять свои сообщения
    Вы не можете голосовать в опросах
    Вы не можете прикреплять файлы к сообщениям
    Вы можете скачивать файлы