MEGA SALE -50% FORZA HORIZON 4 ULTIMATE+ВСЕ DLC+ОНЛАЙН всего за 599р. 299 руб. (супер цена). Внимание количество ограничено!!!

iTunes

1+1

iTunes

мы

iTunes

1

iTunes

Чернобыль

iTunes

Ральф против интернета

Лицензия

ПШазам

Лицензия

Игра престолов

Лицензия

30
pack

ВАЖНО

!!Акция!!

Alien_RageХит недели

RePack

Resident Evil 21

ИГРА 18+

pack

RePack

Metro:Exodus

!!Акция!!

Alien_Rage

RePack

fifa19

RePack

Assassins Creed: Odyssey

RePack

NEED FOR SPEED™ PAYBACK

3 сезон

9 сезон

Бесстыжие 9 сезон

Все сериалы

все сериалы на PB.wtf

RePack

FAR CRY 5
Ребята, катастрофически не хватает 7730р. для оплаты серверов за АВГУСТ (всвязи с блокировками трафик упал в 3 раза), 1-2р., выручайте.
  

Бесславные ублюдки / Inglourious Basterds (Квентин Тарантино, Элай Рот) [2009, боевик, драма, комедия, HDRip, Дубляж] pb.wtf

Бесславные ублюдки через торрент pb.wtf

Размер: 1.46 GB | Добавлен: 3 года 7 мес. назад | Торрент скачан:588 раз
Скачать  

20-01-2016 02:40 Бесславные ублюдки Скачать торрент  


Бесславные ублюдки / Inglourious Basterds
««Они мстят бодро, весело, со вкусом»»

ИНФОРМАЦИЯ:
Год выпуска:2009
Страна: США, Германия
Жанр: боевик, драма, комедия, военный
Продолжительность: 02:32:52
Перевод: Дубляж | Полный дубяж
Режиссер: Квентин Тарантино, Элай Рот

В Ролях:


Брэд Питт (Lt. Aldo Raine), Кристоф Вальц (Col. Hans Landa), Мелани Лоран (Shosanna), Даниэль Брюль (Fredrick Zoller), Дайан Крюгер (Bridget von Hammersmark), Майкл Фассбендер (Lt. Archie Hicox), Аугуст Диль (Major Hellstrom), Элай Рот (Sgt. Donny Donowitz), Тиль Швайгер (Sgt. Hugo Stiglitz), Гедеон Буркхард (Cpl. Wilhelm Wicki), Джеки Идо (Marcel), Б.Дж. Новак (Pfc. Smithson Utivich)

Описание:
Вторая мировая война, в оккупированной немцами Франции группа американских солдат-евреев наводит страх на нацистов, жестоко убивая и скальпируя солдат.

  • Мировая премьера:20 мая 2009

    ТЕХ.ДАННЫЕ:
    Качество: HDRip
    Формат: AVI
    Видео: XviD, 720x304 (2.35:1), 920 kbps, 23,976 fps, 0,175 bpp
    Аудио: AC3 / 5.1 / 48 kHz / 384 kbps / 16 bit


    General
    Complete name : D:\Торенты\Inglourious Basterds.avi
    Format : AVI
    Format/Info : Audio Video Interleave
    File size : 1.46 GiB
    Duration : 2h 32mn
    Overall bit rate : 1 368 Kbps
    Writing application : VirtualDubMod 1.5.10.2 (build 2540/release)
    Writing library : VirtualDubMod build 2540/release

    Video
    ID : 0
    Format : MPEG-4 Visual
    Format profile : Advanced Simple@L5
    Format settings, BVOP : 1
    Format settings, QPel : No
    Format settings, GMC : No warppoints
    Format settings, Matrix : Default (MPEG)
    Codec ID : XVID
    Codec ID/Hint : XviD
    Duration : 2h 32mn
    Bit rate : 921 Kbps
    Width : 720 pixels
    Height : 304 pixels
    Display aspect ratio : 2.35:1
    Frame rate : 23.976 fps
    Color space : YUV
    Chroma subsampling : 4:2:0
    Bit depth : 8 bits
    Scan type : Progressive
    Compression mode : Lossy
    Bits/(Pixel*Frame) : 0.175
    Stream size : 1 007 MiB (67%)
    Writing library : XviD 1.2.0.dev47 (UTC 2006-11-01)

    Audio
    ID : 1
    Format : AC-3
    Format/Info : Audio Coding 3
    Mode extension : CM (complete main)
    Codec ID : 2000
    Duration : 2h 32mn
    Bit rate mode : Constant
    Bit rate : 384 Kbps
    Channel(s) : 6 channels
    Channel positions : Front: L C R, Side: L R, LFE
    Sampling rate : 48.0 KHz
    Bit depth : 16 bits
    Compression mode : Lossy
    Stream size : 420 MiB (28%)
    Alignment : Split accross interleaves
    Скриншоты:

    © Оформление by .::Ворон::.
    pb.wtf



  • Скачать Бесславные ублюдки через торрент http://i66.fastpic.ru/big/2014/1007/03/c60d5e44a94ec8fefe138066489be403.png Скачать фильм Бесславные ублюдки через торрент бесплантно в хорошем качестве Описание: Вторая мировая война, в оккупированной немцами Франции группа американских солдат-евреев наводит страх на нацистов, жестоко ... 9.4 10 15
    Торрент: Зарегистрирован [2016-01-20 02:40] · скачан: 588 раз
    Статус: √ проверено
    Размер: 1.46 GB
    Как cкачать? Как скачать Бесславные ублюдки через торрент | qTorrent

    % Раздел Тема Автор DL S | L
    Фильмы 2013 [DVDrip, WEB-DLRip, HDrip] [ 2.05 GB ] Бесславные ублюдки / Inglourious Basterds [2009 военный HDRip] L_E_X Скачать
    1 | 0
    Фильмы [HD 720p, 1080p] (Хороший звук DUB, MVO) [ 10.96 GB ] Бесславные ублюдки / Inglourious Basterds [2009 BDRip 720p] DUB DVO AVO potroks Скачать
    2 | 0
    Фильмы 2009 [ 2.91 GB ] Бесславные ублюдки / Inglourious Basterds [2009 военный BDRip-AVC] DUB - BD CEE AVO - Ю.Сербин Ворон Скачать
    6 | 2
    Фильмы [HD 720p, 1080p] (Хороший звук DUB, MVO) [ 13.11 GB ] Бесславные ублюдки / Inglourious Basterds [2009 BDRip 1080p ] Ворон Скачать
    3 | 0
    Фильмы 2009 [ 1.94 GB ] Бесславные ублюдки / Inglourious Basterds [2009 военный HDRip]Гоблин azagoth_666 Скачать
    1 | 0


    >> Регистрируемся здесь <<






    Отзывы и комментарии о схеме читаем и пишем здесь: ---> Отзывы и комментарии о схеме

    Новые благодарочки в телеграм довольных пользователей:
    скриншот   скриншот   скриншот   скриншот   скриншот

    29-03-2016 04:01 Бесславные ублюдки Скачать торрент  

    и где здесь полный дубляж?pb.wtf



      Дорогой пользователь! Огромная просьба, поблагодарите релизера, оцените раздачу и оставьте свои комментарий, если Вы скачали Бесславные ублюдки через торрент бесплатно! Внесите свою лепту в развитие PiratBit!
      Комментировать посты могут только пользователи прошедшие не сложную регистрацию
      Показать сообщения:    

      Бесславные ублюдки через торрент
      Скачать бесплатно Бесславные ублюдки
      Бесславные ублюдки скачать торрент
      Бесславные ублюдки смотреть онлайн
      Cкачать фильм Бесславные ублюдки бесплатно
      Бесславные ублюдки скачать торрент в хорошем качестве
      Бесславные ублюдки смотреть онлайн бесплатно в хорошем качестве


      Вы не можете начинать темы
      Вы не можете отвечать на сообщения
      Вы не можете редактировать свои сообщения
      Вы не можете удалять свои сообщения
      Вы не можете голосовать в опросах
      Вы не можете прикреплять файлы к сообщениям
      Вы можете скачивать файлы