Ссылка на приватное зеркало всего за 1$. Внимание количество ограничено!!!

iTunes

iTunes

iTunes

1

iTunes

iTunes

iTunes

iTunes

iTunes

30
pack

$ от Little Big

ВАЖНО

!!Акция!!

Alien_RageХит недели

RePack

Resident Evil 21

ИГРА 18+

pack

RePack

jed

!!Акция!!

Alien_Rage

RePack

fifa19

RePack

Assassins Creed: Odyssey

RePack

NEED FOR SPEED™ PAYBACK

4 сезон

9 сезон

Бесстыжие 9 сезон

Все сериалы

все сериалы на PB.wtf

RePack

FAR CRY 5
  

Банда грабителей / Band of Robbers (Аарон Ни, Адам Ни) [2015,Триллер, комедия, криминал, приключения, WEB-DL 720p] VO pb.wtf

Банда грабителей через торрент pb.wtf

Размер: 3.18 GB | Добавлен: 4 года 5 мес. назад | Торрент скачан:189 раз
Скачать  

20-01-2016 07:27 Банда грабителей Скачать торрент  

Информация о фильме

Название: Банда грабителей

Оригинальное название: Band of Robbers

Год выпуска: 2015

Выпущено: США, Blacklist Digital, Lola's Productions

Продолжительность: 01:35:31

Перевод и озвучивание: Любительское одноголосое [Paul Bunyan]

Субтитры: Английские

Жанр: Триллер, комедия, криминал, приключения

Режиссер: Аарон Ни, Адам Ни

В ролях: Кайл Галлнер, Адам Ни, Мэттью Грей Гублер, Хэннибал Бёресс, Мелисса Бенойст, Дэниэл Эдвард Мора, Стивен Лэнг, Эрик Кристиан Олсен, Джонни Пембертон, Бет Грант

Описание: Мелкий уголовник Гекльберри Финн выходит из заключения и хочет начать новую жизнь с чистого листа. Его планы нарушает друг детства, горе-полицейский, Том Сойер, до сих пор не отказавшийся от детской мечты – найти сокровища. Фильм по мотивам произведений Марка Твена.



Файл

Качество: WEB-DL (720p)
Формат: MKV
Видео: MPEG-4-AVC, 3969 Кбит/с, 1280x534, 23.976 fps
Аудио: Русский (AC3, 6 ch, 320 Кбит/с), 48.0 KHz
Аудио: английский (AC3, 6 ch, 384 Кбит/с) 48.0 KHz
General
Unique ID : 195925944924706147456303008625211598644 (0x9365F6E4503931DA989628A79F9DE734)
Complete name : D:\Торенты\Band.of.Robbers.2015.720p.WEB-DL.HDR.mkv
Format : Matroska
Format version : Version 2
File size : 3.18 GiB
Duration : 1h 35mn
Overall bit rate : 4 767 Kbps
Movie name : ~V~
Encoded date : UTC 2016-01-20 03:43:12
Writing application : mkvmerge v6.5.0 ('Isn't she lovely') built on Oct 20 2013 12:50:05
Writing library : libebml v1.3.0 + libmatroska v1.4.1

Video
ID : 1
Format : AVC
Format/Info : Advanced Video Codec
Format profile : Main@L3.1
Format settings, CABAC : No
Format settings, ReFrames : 2 frames
Codec ID : V_MPEG4/ISO/AVC
Duration : 1h 35mn
Bit rate : 3 969 Kbps
Width : 1 280 pixels
Height : 534 pixels
Display aspect ratio : 2.40:1
Frame rate mode : Constant
Frame rate : 23.976 fps
Color space : YUV
Chroma subsampling : 4:2:0
Bit depth : 8 bits
Scan type : Progressive
Bits/(Pixel*Frame) : 0.242
Stream size : 2.65 GiB (83%)
Language : English
Default : Yes
Forced : No
Color range : Limited
Color primaries : BT.709
Transfer characteristics : BT.709
Matrix coefficients : BT.709

Audio #1
ID : 2
Format : AC-3
Format/Info : Audio Coding 3
Mode extension : CM (complete main)
Format settings, Endianness : Big
Codec ID : A_AC3
Duration : 1h 35mn
Bit rate mode : Constant
Bit rate : 320 Kbps
Channel(s) : 6 channels
Channel positions : Front: L C R, Side: L R, LFE
Sampling rate : 48.0 KHz
Frame rate : 31.250 fps (1536 spf)
Compression mode : Lossy
Stream size : 219 MiB (7%)
Title : VO [ Paul Bunyan]
Language : Russian
Default : Yes
Forced : Yes

Audio #2
ID : 3
Format : AC-3
Format/Info : Audio Coding 3
Mode extension : CM (complete main)
Format settings, Endianness : Big
Codec ID : A_AC3
Duration : 1h 35mn
Bit rate mode : Constant
Bit rate : 384 Kbps
Channel(s) : 6 channels
Channel positions : Front: L C R, Side: L R, LFE
Sampling rate : 48.0 KHz
Frame rate : 31.250 fps (1536 spf)
Compression mode : Lossy
Stream size : 262 MiB (8%)
Language : English
Default : No
Forced : No

Text
ID : 4
Format : UTF-8
Codec ID : S_TEXT/UTF8
Codec ID/Info : UTF-8 Plain Text
Language : English
Default : Yes
Forced : No

Menu
00:00:00.000 : en:Chapter 1
00:09:08.000 : en:Chapter 2
00:18:28.000 : en:Chapter 3
00:32:23.000 : en:Chapter 4
00:41:45.000 : en:Chapter 5
00:50:57.000 : en:Chapter 6
01:00:11.000 : en:Chapter 7
01:10:02.000 : en:Chapter 8
01:22:12.000 : en:Chapter 9
01:32:04.000 : en:Chapter 10


Сэмпл

Релиз от: pb.wtf



Скачать Банда грабителей через торрент http://s018.radikal.ru/i525/1601/b0/a288527d64e4.jpg Скачать фильм Банда грабителей через торрент бесплантно в хорошем качестве Описание: Мелкий уголовник Гекльберри Финн выходит из заключения и хочет начать новую жизнь с чистого листа. Его планы нарушает друг ... 10 10 5
Торрент: Зарегистрирован [2016-01-20 07:27] · скачан: 189 раз
Статус: T временная
Размер: 3.18 GB
Как cкачать? Как скачать Банда грабителей через торрент | qTorrent

% Раздел Тема Автор DL S | L
T Фильмы 2015 (Звук TS, Cam, VO, DVO) [ 1.45 GB ] Банда грабителей / Band of Robbers [2015 WEB-DLRip Любительский двухголосый [Parovoz Production] Ворон Скачать
1 | 0

28-11-2019 20:33  

Отключить всю рекламу на сайте

    Дорогой пользователь! Огромная просьба, поблагодарите релизера, оцените раздачу и оставьте свои комментарий, если Вы скачали Банда грабителей через торрент бесплатно! Внесите свою лепту в развитие PiratBit!
    Комментировать посты могут только пользователи прошедшие не сложную регистрацию
    Показать сообщения:    

    Банда грабителей через торрент
    Скачать бесплатно Банда грабителей
    Банда грабителей скачать торрент
    Банда грабителей смотреть онлайн
    Cкачать фильм Банда грабителей бесплатно
    Банда грабителей скачать торрент в хорошем качестве
    Банда грабителей смотреть онлайн бесплатно в хорошем качестве


    Вы не можете начинать темы
    Вы не можете отвечать на сообщения
    Вы не можете редактировать свои сообщения
    Вы не можете удалять свои сообщения
    Вы не можете голосовать в опросах
    Вы не можете прикреплять файлы к сообщениям
    Вы можете скачивать файлы