2 сезон

iTunes

1 сезон

1

iTunes

iTunes

iTunes

1 сезон

RePack

30

ИГРА 18+

pack

ВАЖНО

!!Акция!!

Alien_RageХит недели

RePack

MK11
pack

Забери бонус

RePack

jed

!!Акция!!

Alien_Rage

RePack

fifa19

RePack

Assassins Creed: Odyssey

RePack

NEED FOR SPEED™ PAYBACK

4 сезон

9 сезон

Бесстыжие 9 сезон

Все сериалы

все сериалы на PB.wtf

RePack

FAR CRY 5
  

Паранормальное явление 5: Призраки в 3D / Paranormal Activity: The Ghost Dimension (Грегори Плоткин) [2015, ужасы, BDRip 1080p, Theatrical Cut / iTunes] от R.G. HD-Films pb.wtf

Паранормальное явление 5: Призраки в 3D через торрент pb.wtf

Размер: 8.34 GB | Добавлен: 4 года 9 мес. назад | Торрент скачан:246 раз
Скачать  

20-01-2016 08:12 Паранормальное явление 5: Призраки в 3D Скачать торрент  


Паранормальное явление 5: Призраки в 3D / Paranormal Activity: The Ghost Dimension
««You can't save them. All you can do is watch»»

ИНФОРМАЦИЯ:
Год выпуска:2015
Страна: США
Жанр: ужасы
Продолжительность: 01:28:04
Перевод: Дубляж - [Лицензия / iTunes]
Субтитры: русские (Forced), русские (Full),
Режиссер: Грегори Плоткин

В Ролях:


Крис Дж. Мюррэй (Ryan), Бриттани Шоу (Emily), Айви Джордж (Leila), Дэн Гилл (Mike), Оливия Тейлор Дадли (Skyler), Хлоя Ксенджери (Katie), Джесика Браун (Kristi), Дон МакМанус (Kent), Майкл Кравич (Father Todd), Халли Фут (Grandma Lois), Эйден Лавкамп (Hunter Rey), Кара Пифко (Laura)

Описание:
Молодые супруги Райан и Эмили, и их 6-летняя дочь Лейла переезжают в довольно симпатичный и тихий дом. В гараже они находят видеокамеру и коробку кассет. Но они даже не подозревали, что они увидят, когда заглянут в объектив камеры...

  • Мировая премьера:20 октября 2015

    ТЕХ.ДАННЫЕ:
    Качество: BDRip 1080p
    Формат: MKV
    Видео: AVC, 1920x1080 (16:9), 11394 kbps, 23,976 fps, 0,229 bpp
    Аудио №1: русский / AC3 / 5.1 / 48 kHz / 384 kbps / 16 bit ||
    Аудио №2: английский / DTS / 5.1 / 48 kHz / 1510 kbps / 24 bit
    Навигация по главам: есть


    General
    Unique ID : 187716718307320361683763587931938264570 (0x8D38ECC543B566AFA50B563F2D6095FA)
    Complete name : D:\Торенты\Paranormal Activity.BDRip.1O8Op.R.G. HD-Films.mkv
    Format : Matroska
    Format version : Version 4 / Version 2
    File size : 8.34 GiB
    Duration : 1h 28mn
    Overall bit rate : 13.6 Mbps
    Movie name : R.G. HD-Films
    Encoded date : UTC 2016-01-20 07:57:42
    Writing application : mkvmerge v6.7.0 ('Back to the Ground') 64bit built on Jan 8 2014 15:10:52
    Writing library : libebml v1.3.0 + libmatroska v1.4.1
    Attachment : Yes

    Video
    ID : 1
    Format : AVC
    Format/Info : Advanced Video Codec
    Format profile : High@L4.1
    Format settings, CABAC : Yes
    Format settings, ReFrames : 4 frames
    Codec ID : V_MPEG4/ISO/AVC
    Duration : 1h 28mn
    Bit rate : 11.4 Mbps
    Width : 1 920 pixels
    Height : 1 080 pixels
    Display aspect ratio : 16:9
    Frame rate : 23.976 fps
    Color space : YUV
    Chroma subsampling : 4:2:0
    Bit depth : 8 bits
    Scan type : Progressive
    Bits/(Pixel*Frame) : 0.229
    Stream size : 7.01 GiB (84%)
    Title : R.G. HD-Films
    Language : Russian
    Default : Yes
    Forced : No

    Audio #1
    ID : 2
    Format : AC-3
    Format/Info : Audio Coding 3
    Mode extension : CM (complete main)
    Codec ID : A_AC3
    Duration : 1h 28mn
    Bit rate mode : Constant
    Bit rate : 384 Kbps
    Channel(s) : 6 channels
    Channel positions : Front: L C R, Side: L R, LFE
    Sampling rate : 48.0 KHz
    Bit depth : 16 bits
    Compression mode : Lossy
    Stream size : 242 MiB (3%)
    Title : Дубляж [iTunes]
    Language : Russian
    Default : Yes
    Forced : No

    Audio #2
    ID : 3
    Format : DTS
    Format/Info : Digital Theater Systems
    Codec ID : A_DTS
    Duration : 1h 28mn
    Bit rate mode : Constant
    Bit rate : 1 510 Kbps
    Channel(s) : 6 channels
    Channel positions : Front: L C R, Side: L R, LFE
    Sampling rate : 48.0 KHz
    Bit depth : 24 bits
    Compression mode : Lossy
    Stream size : 951 MiB (11%)
    Language : English
    Default : No
    Forced : No

    Text #1
    ID : 4
    Format : UTF-8
    Codec ID : S_TEXT/UTF8
    Codec ID/Info : UTF-8 Plain Text
    Title : Forced
    Language : Russian
    Default : Yes
    Forced : No

    Text #2
    ID : 5
    Format : UTF-8
    Codec ID : S_TEXT/UTF8
    Codec ID/Info : UTF-8 Plain Text
    Title : Full
    Language : Russian
    Default : No
    Forced : No

    Menu
    00:00:00.000 : en:
    00:01:56.074 : en:
    00:09:23.312 : en:
    00:17:33.177 : en:
    00:24:11.491 : en:
    00:29:08.288 : en:
    00:36:40.990 : en:
    00:42:59.451 : en:
    00:49:04.441 : en:
    00:56:20.668 : en:
    01:04:23.609 : en:
    01:11:25.322 : en:
    01:22:39.120 : en:
    Скриншоты:

    © Оформление by .::Ворон::.
    pb.wtf
    !Ворон писал(а):

    За субтитры спасибо potroks



  • Скачать Паранормальное явление 5: Призраки в 3D через торрент http://pic.kartinco.top/images/6/ordi9.jpg Скачать фильм Паранормальное явление 5: Призраки в 3D через торрент бесплантно в хорошем качестве Описание: Молодые супруги Райан и Эмили, и их 6-летняя дочь Лейла переезжают в довольно симпатичный и тихий дом. В гараже они находят ... 9.3 10 15
    Info! Золотая раздача, скачанное не засчитывается.
    Торрент: Зарегистрирован [2016-01-20 08:12] · скачан: 246 раз
    Статус: √ проверено
    Размер: 8.34 GB
    Как cкачать? Как скачать Паранормальное явление 5: Призраки в 3D через торрент | qTorrent

    28-11-2019 20:33  

    Отключить всю рекламу на сайте

    21-01-2016 10:26 Паранормальное явление 5: Призраки в 3D Скачать торрент  

    поднадоело уже, одно и то же по сути. а за раздачу спасибоpb.wtf



      Дорогой пользователь! Огромная просьба, поблагодарите релизера, оцените раздачу и оставьте свои комментарий, если Вы скачали Паранормальное явление 5: Призраки в 3D через торрент бесплатно! Внесите свою лепту в развитие PiratBit!
      Комментировать посты могут только пользователи прошедшие не сложную регистрацию
      Показать сообщения:    

      Паранормальное явление 5: Призраки в 3D через торрент
      Скачать бесплатно Паранормальное явление 5: Призраки в 3D
      Паранормальное явление 5: Призраки в 3D скачать торрент
      Паранормальное явление 5: Призраки в 3D смотреть онлайн
      Cкачать фильм Паранормальное явление 5: Призраки в 3D бесплатно
      Паранормальное явление 5: Призраки в 3D скачать торрент в хорошем качестве
      Паранормальное явление 5: Призраки в 3D смотреть онлайн бесплатно в хорошем качестве


      Вы не можете начинать темы
      Вы не можете отвечать на сообщения
      Вы не можете редактировать свои сообщения
      Вы не можете удалять свои сообщения
      Вы не можете голосовать в опросах
      Вы не можете прикреплять файлы к сообщениям
      Вы можете скачивать файлы