Ссылка на приватное зеркало нашего сайта всего за 1$. Внимание количество ограничено!!!

2 сезон

iTunes

1 сезон

1

iTunes

iTunes

iTunes

1 сезон

RePack

30

ИГРА 18+

pack

ВАЖНО

!!Акция!!

Alien_RageХит недели

RePack

MK11
pack

Забери бонус

RePack

jed

!!Акция!!

Alien_Rage

RePack

fifa19

RePack

Assassins Creed: Odyssey

RePack

NEED FOR SPEED™ PAYBACK

4 сезон

9 сезон

Бесстыжие 9 сезон

Все сериалы

все сериалы на PB.wtf

RePack

FAR CRY 5
  

Страж / The Guardian (Уильям Фридкин) [1990, ужасы, триллер, драма, детектив, BDRip 720p by msltel] MVO, AVO pb.wtf

Страж через торрент pb.wtf

Раздают: 1 [ 0 KB/s ]
Размер: 4.31 GB | Добавлен: 4 года 9 мес. назад | Торрент скачан:111 раз
Скачать  

20-01-2016 12:15 Страж Скачать торрент  

Название: Страж
Оригинальное название: The Guardian
Год выпуска: 1990
Страна: США
Жанр: ужасы, триллер, драма, детектив
Продолжительность: 01:32:30
Перевод: профессиональный многоголосый, авторский

Режиссёр: Уильям Фридкин

В ролях: Дженни Сигроув, Дуайр Браун, Кэри Лоуэлл, Брэд Холл, Мигель Феррер, Наталия Ногулич, Памела Бралл, Гэри Суонсон, Джек Дэвид Уолкер, Вилли Парсонс

Описание: Молодая супружеская пара переезжает в новый дом неподалёку от леса. Вскоре у них рождается очаровательный малыш, и супруги решают нанять няню. С этого всё и начинается. Главная претендентка внезапно погибает именно в тот момент, когда молодые родители решают нанять её, и няней становится красивая и загадочная девушка "не от мира сего", которая была второй в списке кандидатур. И вот, обратного пути нет - сова тщательно следит за мышью-добычей. Теперь, когда-то счастливые, родители будут вынуждены всеми силами пытаться спасти своё чадо от могущественного и очень древнего зла, затаившегося в глубине дремучего леса, в котором когда-то великие друиды приносили в жертву младенцев в обмен на вечную молодость...



Качество: BDRip 720p Сравнение с исходником
Формат: MKV
Видео: MPEG-4 AVC, 5333 Кбит/с, 1280x694, 23,976 кадра/с
Аудио 1: русский, AC3, 384 kbps, 2 ch, 48 kHz [профессиональный многоголосый, R5]
Аудио 2: русский, AC3, 384 kbps, 2 ch, 48 kHz [профессиональный многоголосый, Премьер Мультимедиа]
Аудио 3: русский, AC3, 384 kbps, 6 ch, 48 kHz [авторский, Алексей Михалёв]
Аудио 4: английский, AC3, 192 kbps, 2 ch, 48 kHz [оригинал]
Субтитры: английские
Общее
Уникальный идентификатор : 216271049299071465233613791327924259182 (0xA2B449FB9213FB2E951F49D98CC8096E)
Полное имя : D:\Video\Страж.1990.BDRip.720p.mkv
Формат : Matroska
Версия формата : Version 4 / Version 2
Размер файла : 4,31 Гбайт
Продолжительность : 1 ч. 32 м.
Общий поток : 6679 Кбит/сек
Дата кодирования : UTC 2016-01-20 11:33:58
Программа кодирования : mkvmerge v8.2.0 ('World of Adventure') 64bit
Библиотека кодирования : libebml v1.3.1 + libmatroska v1.4.2

Видео
Идентификатор : 1
Формат : AVC
Формат/Информация : Advanced Video Codec
Профиль формата : High@L4.1
Параметр CABAC формата : Да
Параметр ReFrames формата : 9 кадров
Идентификатор кодека : V_MPEG4/ISO/AVC
Продолжительность : 1 ч. 32 м.
Битрейт : 5333 Кбит/сек
Ширина : 1280 пикселей
Высота : 694 пикселя
Соотношение сторон : 1,85:1
Режим частоты кадров : Постоянный
Частота кадров : 23,976 (24000/1001) кадра/сек
Цветовое пространство : YUV
Субдискретизация насыщенности : 4:2:0
Битовая глубина : 8 бит
Тип развёртки : Прогрессивная
Бит/(Пиксели*Кадры) : 0.250
Размер потока : 3,45 Гбайт (80%)
Библиотека кодирования : x264 core 146 r2538 121396c
Настройки программы : cabac=1 / ref=9 / deblock=1:-3:-3 / analyse=0x3:0x113 / me=umh / subme=10 / psy=1 / psy_rd=1.00:0.15 / mixed_ref=1 / me_range=32 / chroma_me=1 / trellis=2 / 8x8dct=1 / cqm=0 / deadzone=21,11 / fast_pskip=1 / chroma_qp_offset=-3 / threads=6 / lookahead_threads=1 / sliced_threads=0 / nr=0 / decimate=1 / interlaced=0 / bluray_compat=0 / constrained_intra=0 / bframes=12 / b_pyramid=2 / b_adapt=2 / b_bias=0 / direct=1 / weightb=1 / open_gop=0 / weightp=2 / keyint=230 / keyint_min=23 / scenecut=40 / intra_refresh=0 / rc_lookahead=40 / rc=crf / mbtree=0 / crf=20.6 / qcomp=0.60 / qpmin=0 / qpmax=69 / qpstep=4 / vbv_maxrate=40000 / vbv_bufsize=50000 / crf_max=0.0 / nal_hrd=none / filler=0 / ip_ratio=1.40 / pb_ratio=1.30 / aq=1:1.00
Язык : English
Default : Да
Forced : Нет

Аудио #1
Идентификатор : 2
Формат : AC-3
Формат/Информация : Audio Coding 3
Расширение режима : CM (complete main)
Параметр Endianness формата : Big
Идентификатор кодека : A_AC3
Продолжительность : 1 ч. 32 м.
Вид битрейта : Постоянный
Битрейт : 384 Кбит/сек
Каналы : 2 канала
Расположение каналов : Front: L R
Частота : 48,0 КГц
Частота кадров : 31,250 кадров/сек (1536 spf)
Метод сжатия : С потерями
Размер потока : 254 Мбайт (6%)
Заголовок : MVO (R5)
Язык : Russian
Default : Да
Forced : Нет

Аудио #2
Идентификатор : 3
Формат : AC-3
Формат/Информация : Audio Coding 3
Расширение режима : CM (complete main)
Параметр Endianness формата : Big
Идентификатор кодека : A_AC3
Продолжительность : 1 ч. 32 м.
Вид битрейта : Постоянный
Битрейт : 384 Кбит/сек
Каналы : 2 канала
Расположение каналов : Front: L R
Частота : 48,0 КГц
Частота кадров : 31,250 кадров/сек (1536 spf)
Метод сжатия : С потерями
Размер потока : 254 Мбайт (6%)
Заголовок : MVO (Премьер Мультимедиа)
Язык : Russian
Default : Нет
Forced : Нет

Аудио #3
Идентификатор : 4
Формат : AC-3
Формат/Информация : Audio Coding 3
Расширение режима : CM (complete main)
Параметр Endianness формата : Big
Идентификатор кодека : A_AC3
Продолжительность : 1 ч. 32 м.
Вид битрейта : Постоянный
Битрейт : 384 Кбит/сек
Каналы : 6 каналов
Расположение каналов : Front: L C R, Side: L R, LFE
Частота : 48,0 КГц
Частота кадров : 31,250 кадров/сек (1536 spf)
Метод сжатия : С потерями
Размер потока : 254 Мбайт (6%)
Заголовок : AVO (Алексей Михалёв)
Язык : Russian
Default : Нет
Forced : Нет

Аудио #4
Идентификатор : 5
Формат : AC-3
Формат/Информация : Audio Coding 3
Расширение режима : CM (complete main)
Параметр Endianness формата : Big
Идентификатор кодека : A_AC3
Продолжительность : 1 ч. 32 м.
Вид битрейта : Постоянный
Битрейт : 192 Кбит/сек
Каналы : 2 канала
Расположение каналов : Front: L R
Частота : 48,0 КГц
Частота кадров : 31,250 кадров/сек (1536 spf)
Метод сжатия : С потерями
Размер потока : 127 Мбайт (3%)
Заголовок : Original
Язык : English
Default : Нет
Forced : Нет

Текст
Идентификатор : 6
Формат : UTF-8
Идентификатор кодека : S_TEXT/UTF8
Идентификатор кодека/Информация : UTF-8 Plain Text
Продолжительность : 1 ч. 29 м.
Битрейт : 50 бит/сек
Count of elements : 1314
Размер потока : 33,3 Кбайт (0%)
Заголовок : английский
Язык : English
Default : Нет
Forced : Нет
pb.wtf



Скачать Страж через торрент http://s020.radikal.ru/i719/1601/30/17e2efe85365.png Скачать фильм Страж через торрент бесплантно в хорошем качестве Описание: Молодая супружеская пара переезжает в новый дом неподалёку от леса. Вскоре у них рождается очаровательный малыш, и супруги решают ... 8.7 10 7
Info! Золотая раздача, скачанное не засчитывается.
Торрент: Зарегистрирован [2016-01-20 12:15] · скачан: 111 раз
Статус: √ проверено
Размер: 4.31 GB
Как cкачать? Как скачать Страж через торрент | qTorrent

% Раздел Тема Автор DL S | L
Ultra HD (UHD: 2K, 4K, 8K) — видео сверхвысокой чёткости [ 77.35 GB ] Стражи Галактики / Guardians of the Galaxy [2014 UHD BDRemux 2160p] 2xDUB [] +MVO+5xAVO bober100 Скачать
1 | 0
Фильмы (Blu-ray, BD-Remux, HDDVD) [ 37.09 GB ] Стражи Галактики / Guardians of the Galaxy [2014 BD Remux 1080p] MVO+AVO+2xDUB [IMAX Edition] [] bober100 Скачать
1 | 0
Фильмы [HD 720p, 1080p] (Хороший звук DUB, MVO) [ 9.16 GB ] Страж / The Guardian [1990 BDRip 1080p by msltel] MVO AVO msltel Скачать
1 | 0
Фильмы (Blu-ray, BD-Remux, HDDVD) [ 23.51 GB ] Страж / Дух-хранитель / Опекун / The Guardian [1990 BDRemux 1080p] MVO + AVO + original + sub Ворон Скачать
1 | 0
Фильмы до 2000 г. [ 2.36 GB ] Страж / The Guardian [1990 BDRip AVC by msltel] MVO AVO msltel Скачать
1 | 0
Фильмы [HD 720p, 1080p] (Хороший звук DUB, MVO) [ 9.38 GB ] Стражи Галактики / Guardians of the Galaxy [2014 BDRip 720p IMAX DUB MVO AVO] _denis_100 Скачать
1 | 0

28-11-2019 20:33  

Отключить всю рекламу на сайте

20-01-2016 13:42 Страж Скачать торрент  

отличный фильм,раньше смотрел,скачиваю pb.wtf





Последний раз редактировалось: Caня (2016-05-09 12:36), всего редактировалось 1 раз

20-01-2016 20:38 Страж Скачать торрент  

поддай газуpb.wtf



09-05-2016 12:36 Страж Скачать торрент  

раздаю, качайтеpb.wtf



    Дорогой пользователь! Огромная просьба, поблагодарите релизера, оцените раздачу и оставьте свои комментарий, если Вы скачали Страж через торрент бесплатно! Внесите свою лепту в развитие PiratBit!
    Комментировать посты могут только пользователи прошедшие не сложную регистрацию
    Показать сообщения:    

    Страж через торрент
    Скачать бесплатно Страж
    Страж скачать торрент
    Страж смотреть онлайн
    Cкачать фильм Страж бесплатно
    Страж скачать торрент в хорошем качестве
    Страж смотреть онлайн бесплатно в хорошем качестве


    Вы не можете начинать темы
    Вы не можете отвечать на сообщения
    Вы не можете редактировать свои сообщения
    Вы не можете удалять свои сообщения
    Вы не можете голосовать в опросах
    Вы не можете прикреплять файлы к сообщениям
    Вы можете скачивать файлы