2 сезон

iTunes

1 сезон

1

iTunes

iTunes

iTunes

1 сезон

RePack

30

ИГРА 18+

pack

ВАЖНО

!!Акция!!

Alien_RageХит недели

RePack

MK11
pack

Забери бонус

RePack

jed

!!Акция!!

Alien_Rage

RePack

fifa19

RePack

Assassins Creed: Odyssey

RePack

NEED FOR SPEED™ PAYBACK

4 сезон

9 сезон

Бесстыжие 9 сезон

Все сериалы

все сериалы на PB.wtf

RePack

FAR CRY 5
  

Волшебное королевство Щелкунчика / The Nutcracker Sweet (Эдуардо Шульдт) [2015г., мультфильм, WEB-DLRip] Дубляж - [Чистый звук] pb.wtf

Волшебное королевство Щелкунчика через торрент pb.wtf

Размер: 1.45 GB | Добавлен: 4 года 9 мес. назад | Торрент скачан:383 раза
Скачать  

20-01-2016 13:26 Волшебное королевство Щелкунчика Скачать торрент  

Волшебное королевство Щелкунчика / The Nutcracker Sweet
Год выпуска: 2015
Страна: Перу
Жанр: мультфильм
Продолжительность: 01:20:26

  • Перевод: Дубляж - [Чистый звук]
  • Оригинальная аудиодорожка: английская

Режиссер: Эдуардо Шульдт
В ролях:
Алисия Сильверстоун (Marie, озвучка), Эдвард Эснер (Owl, озвучка), Дрейк Белл (Nutcracker, озвучка), Карен Страссман (Fritz, озвучка), Рик Зефф (Mouse King / Screech / Soldiers, озвучка), Грант Джордж (Father / Limburger / Squeak, озвучка), Уэнди Ли (Mother / Princess Marmalade / Mice, озвучка), Кирк Торнтон (Drosselmeyer / Commander / Mice, озвучка)
Описание:
Сестра Мари и ее брат Фритц получают от своего крестного праздничный подарок – забавного и трогательного деревянного Щелкунчика. Но в рождественскую ночь начинает происходить настоящая магия, когда оживут не только «хорошие» игрушки, но и те, что грозят опасностью…




  • Тип релиза: WEB-DLRip
  • Формат: AVI
  • Видео кодек: XviD | Аудио кодек: AC3
  • Видео: XviD, 720x400 (16:9), 1999 kbps, 23,976 fps, 0,289 bpp
  • Аудио №1: AC3 / 2.0 / 48 kHz / 192 kbps / 16 bit | RUS
  • Аудио №2: AC3 / 5.1 / 48 kHz / 384 kbps / 16 bit | ENG
  • Сэмпл: скачать
General
Complete name : C:\торрент\тор\8ol6eBn0e.K0r0le8sTv0.S4elKuN4iKa.2015.D.WEB-DLRip.rustorrents.avi
Format : AVI
Format/Info : Audio Video Interleave
File size : 1.45 GiB
Duration : 1h 20mn
Overall bit rate : 2 589 Kbps
Writing application : VirtualDubMod 1.5.10.3 | www.virtualdub-fr.org || (build 2550/release)
Writing library : VirtualDubMod build 2550/release

Video
ID : 0
Format : MPEG-4 Visual
Format profile : Advanced Simple@L5
Format settings, BVOP : 2
Format settings, QPel : No
Format settings, GMC : No warppoints
Format settings, Matrix : Default (MPEG)
Codec ID : XVID
Codec ID/Hint : XviD
Duration : 1h 20mn
Bit rate : 1 999 Kbps
Width : 720 pixels
Height : 400 pixels
Display aspect ratio : 16:9
Frame rate : 23.976 fps
Color space : YUV
Chroma subsampling : 4:2:0
Bit depth : 8 bits
Scan type : Progressive
Compression mode : Lossy
Bits/(Pixel*Frame) : 0.289
Stream size : 1.12 GiB (77%)
Writing library : XviD 1.2.1 (UTC 2008-12-04)

Audio #1
ID : 1
Format : AC-3
Format/Info : Audio Coding 3
Mode extension : CM (complete main)
Codec ID : 2000
Duration : 1h 20mn
Bit rate mode : Constant
Bit rate : 192 Kbps
Channel(s) : 2 channels
Channel positions : Front: L R
Sampling rate : 48.0 KHz
Bit depth : 16 bits
Compression mode : Lossy
Stream size : 110 MiB (7%)
Alignment : Split accross interleaves
Interleave, duration : 42 ms (1.00 video frame)
Interleave, preload duration : 500 ms

Audio #2
ID : 2
Format : AC-3
Format/Info : Audio Coding 3
Mode extension : CM (complete main)
Codec ID : 2000
Duration : 1h 20mn
Bit rate mode : Constant
Bit rate : 384 Kbps
Channel(s) : 6 channels
Channel positions : Front: L C R, Side: L R, LFE
Sampling rate : 48.0 KHz
Bit depth : 16 bits
Compression mode : Lossy
Stream size : 221 MiB (15%)
Alignment : Split accross interleaves
Interleave, duration : 42 ms (1.00 video frame)
Interleave, preload duration : 500 ms
Внимание, в релизе присутствует реклама казино. Что делать? ждать когда выложат релиз без этого (в них всегда указанно что релиз без рекламы) либо лицензию. Запретить такие темы нельзя, пока нет альтернативы.pb.wtf



Скачать Волшебное королевство Щелкунчика через торрент http://i75.fastpic.ru/big/2016/0120/b5/abe87b4ae09fa980ed4f25020c038db5.jpg Скачать фильм Волшебное королевство Щелкунчика через торрент бесплантно в хорошем качестве Описание: Сестра Мари и ее брат Фритц получают от своего крестного праздничный подарок – забавного и трогательного деревянного Щелкунчика. ... 10 10 11
Info! Золотая раздача, скачанное не засчитывается.
Торрент: Зарегистрирован [2016-01-20 13:26] · скачан: 383 раз
Статус: T временная
Размер: 1.45 GB
Как cкачать? Как скачать Волшебное королевство Щелкунчика через торрент | qTorrent

28-11-2019 20:33  

Отключить всю рекламу на сайте

    Дорогой пользователь! Огромная просьба, поблагодарите релизера, оцените раздачу и оставьте свои комментарий, если Вы скачали Волшебное королевство Щелкунчика через торрент бесплатно! Внесите свою лепту в развитие PiratBit!
    Комментировать посты могут только пользователи прошедшие не сложную регистрацию
    Показать сообщения:    

    Волшебное королевство Щелкунчика через торрент
    Скачать бесплатно Волшебное королевство Щелкунчика
    Волшебное королевство Щелкунчика скачать торрент
    Волшебное королевство Щелкунчика смотреть онлайн
    Cкачать фильм Волшебное королевство Щелкунчика бесплатно
    Волшебное королевство Щелкунчика скачать торрент в хорошем качестве
    Волшебное королевство Щелкунчика смотреть онлайн бесплатно в хорошем качестве


    Вы не можете начинать темы
    Вы не можете отвечать на сообщения
    Вы не можете редактировать свои сообщения
    Вы не можете удалять свои сообщения
    Вы не можете голосовать в опросах
    Вы не можете прикреплять файлы к сообщениям
    Вы можете скачивать файлы