Marvel's Avengers Deluxe Edition (супер цена) 159р. Внимание количество ограничено!!!

2 сезон

iTunes

iTunes

1

iTunes

iTunes

iTunes

WEBRip

iTunes

30
pack

Новость дня

ВАЖНО

!!Акция!!

Alien_RageХит недели

RePack

Horizon Zero Dawn

ИГРА 18+

pack

RePack

jed

!!Акция!!

Alien_Rage

RePack

fifa19

RePack

Assassins Creed: Odyssey

RePack

NEED FOR SPEED™ PAYBACK

4 сезон

9 сезон

Бесстыжие 9 сезон

Все сериалы

все сериалы на PB.wtf

RePack

FAR CRY 5
  

Приговорённые 2: Охота в пустыне / The Condemned 2 (Роэль Рейн / Roel Reiné) [2015, боевик, триллер, BDRip-AVC от potroks] Dub [iTunes] pb.wtf

Приговорённые 2: Охота в пустыне через торрент pb.wtf

Размер: 2.17 GB | Добавлен: 4 года 7 мес. назад | Торрент скачан:362 раза
Скачать  

20-01-2016 16:38 Приговорённые 2: Охота в пустыне Скачать торрент  

Приговорённые 2: Охота в пустыне / The Condemned 2
Год выпуска: 2015
Страна: США / WWE Studios
Жанр: боевик, триллер
Продолжительность: 01:30:44
Перевод: Дубляж [iTunes]
Субтитры: английские (Full), английские (SDH)
Навигация по главам: есть
Режиссер: Роэль Рейн / Roel Reiné
В ролях:

Рэнди Ортон (Will Tanner), Эрик Робертс (Frank Tanner), Уэс Стьюди (Cyrus Merrick), Стивен Майкл Квезада (Raul Baccaro), Билл Стинчкомб (Harrigan), Алекс Найт (Cooper), Дилан Кенин (Travis), Майкл Шитс (Lange), Дон Бикнелл (Michaels), Марк Сивертсен (Sheriff Eric Ross), Мерритт К. Гловер (Deputy #1), Мэттью Пейдж (Deputy #2)
Описание: Уилл Таннер из тех, кто выбрал для себя профессию «охотников за головами». Однажды он попадает в серьезные неприятности: его задерживает полиция, и ему выносят приговор. Его и бывшую его команду вовлекают в игру на выживание под объективами камер в угоду интересам благополучной публики. Ставки сделаны, приговоренные должны проявить в жестких обстоятельствах максимум своих способностей: сражаться и избегать ловушек, быть выносливыми и изобретательными.

Качество: BDRip-AVC
Формат: MKV
Видео кодек: AVC
Аудио кодек: AC3
Видео: 1024x576 (16:9), 2675 kbps, 23,976 fps, 0,189 bit/pixel
Аудио №1: AC3 / 5.1 / 48 kHz / 384 kbps / 16 bit | RUS
Аудио №2: AC3 / 5.1 / 48 kHz / 384 kbps / 16 bit | ENG

Релиз группы:
Автор рипа: potroks

Код:

General
Unique ID                                : 181388883156928315543083257532349563200 (0x88763A6906F987449F7F36C9948E4140)
Complete name                            : Prigovoryonnyie.2.2015.DUAL.BDRip.x264.-HELLYWOOD.mkv
Format                                   : Matroska
Format version                           : Version 4 / Version 2
File size                                : 2.17 GiB
Duration                                 : 1h 30mn
Overall bit rate                         : 3 423 Kbps
Movie name                               : The Condemned 2 (2015) - HELLYWOOD
Encoded date                             : UTC 2010-02-22 21:41:31
Writing application                      : mkvmerge v5.8.0 ('No Sleep / Pillow') built on Sep 30 2012 10:57:14
Writing library                          : libebml v1.3.0 + libmatroska v1.4.0

Video
ID                                       : 1
Format                                   : AVC
Format/Info                              : Advanced Video Codec
Format profile                           : High@L4.1
Format settings, CABAC                   : Yes
Format settings, ReFrames                : 12 frames
Codec ID                                 : V_MPEG4/ISO/AVC
Duration                                 : 1h 30mn
Bit rate                                 : 2 675 Kbps
Width                                    : 1 024 pixels
Height                                   : 576 pixels
Display aspect ratio                     : 16:9
Frame rate                               : 23.976 fps
Color space                              : YUV
Chroma subsampling                       : 4:2:0
Bit depth                                : 8 bits
Scan type                                : Progressive
Bits/(Pixel*Frame)                       : 0.189
Stream size                              : 1.64 GiB (76%)
Title                                    : potroks
Writing library                          : x264 core 146 r2538 121396c
Encoding settings                        : cabac=1 / ref=12 / deblock=1:-2:-2 / analyse=0x3:0x113 / me=umh / subme=11 / psy=1 / psy_rd=1.00:0.05 / mixed_ref=1 / me_range=48 / chroma_me=1 / trellis=2 / 8x8dct=1 / cqm=0 / deadzone=21,11 / fast_pskip=0 / chroma_qp_offset=-3 / threads=9 / lookahead_threads=2 / sliced_threads=0 / nr=0 / decimate=1 / interlaced=0 / bluray_compat=0 / constrained_intra=0 / bframes=13 / b_pyramid=2 / b_adapt=2 / b_bias=0 / direct=3 / weightb=1 / open_gop=0 / weightp=2 / keyint=240 / keyint_min=23 / scenecut=40 / intra_refresh=0 / rc_lookahead=60 / rc=2pass / mbtree=0 / bitrate=2675 / ratetol=1.0 / qcomp=0.70 / qpmin=0 / qpmax=69 / qpstep=4 / cplxblur=20.0 / qblur=0.5 / vbv_maxrate=14000 / vbv_bufsize=14000 / nal_hrd=none / filler=0 / ip_ratio=1.35 / pb_ratio=1.25 / aq=1:0.80
Language                                 : English
Default                                  : Yes
Forced                                   : No

Audio #1
ID                                       : 2
Format                                   : AC-3
Format/Info                              : Audio Coding 3
Mode extension                           : CM (complete main)
Codec ID                                 : A_AC3
Duration                                 : 1h 30mn
Bit rate mode                            : Constant
Bit rate                                 : 384 Kbps
Channel(s)                               : 6 channels
Channel positions                        : Front: L C R, Side: L R, LFE
Sampling rate                            : 48.0 KHz
Bit depth                                : 16 bits
Compression mode                         : Lossy
Stream size                              : 249 MiB (11%)
Title                                    : Dub | DD 5.1 @ 384 kbps - iTunes
Language                                 : Russian
Default                                  : Yes
Forced                                   : No

Audio #2
ID                                       : 3
Format                                   : AC-3
Format/Info                              : Audio Coding 3
Mode extension                           : CM (complete main)
Codec ID                                 : A_AC3
Duration                                 : 1h 30mn
Bit rate mode                            : Constant
Bit rate                                 : 384 Kbps
Channel(s)                               : 6 channels
Channel positions                        : Front: L C R, Side: L R, LFE
Sampling rate                            : 48.0 KHz
Bit depth                                : 16 bits
Compression mode                         : Lossy
Stream size                              : 249 MiB (11%)
Title                                    : Original | DD 5.1 @ 448 kbps
Language                                 : English
Default                                  : No
Forced                                   : No

Text #1
ID                                       : 4
Format                                   : UTF-8
Codec ID                                 : S_TEXT/UTF8
Codec ID/Info                            : UTF-8 Plain Text
Title                                    : Full
Language                                 : English
Default                                  : No
Forced                                   : No

Text #2
ID                                       : 5
Format                                   : UTF-8
Codec ID                                 : S_TEXT/UTF8
Codec ID/Info                            : UTF-8 Plain Text
Title                                    : SDH
Language                                 : English
Default                                  : No
Forced                                   : No

Menu
00:00:00.000                             : en:00:00:00.000
00:05:10.268                             : en:00:05:10.268
00:10:51.693                             : en:00:10:51.693
00:16:40.958                             : en:00:16:40.958
00:24:10.824                             : en:00:24:10.824
00:29:33.063                             : en:00:29:33.063
00:35:30.712                             : en:00:35:30.712
00:40:32.096                             : en:00:40:32.096
00:46:27.910                             : en:00:46:27.910
00:50:58.847                             : en:00:50:58.847
00:58:51.236                             : en:00:58:51.236
01:05:29.134                             : en:01:05:29.134
01:09:39.634                             : en:01:09:39.634
01:13:52.803                             : en:01:13:52.803
01:18:19.862                             : en:01:18:19.862
01:23:30.255                             : en:01:23:30.255

pb.wtf



Скачать Приговорённые 2: Охота в пустыне через торрент http://i74.fastpic.ru/big/2016/0120/9e/9d668fa5efee15ee538d29652a5c7f9e.png Скачать фильм Приговорённые 2: Охота в пустыне через торрент бесплантно в хорошем качестве Описание: Уилл Таннер из тех, кто выбрал для себя профессию «охотников за головами». Однажды он попадает в серьезные неприятности: его ... 9.1 10 10
Info! Золотая раздача, скачанное не засчитывается.
Торрент: Зарегистрирован [2016-01-20 16:38] · скачан: 362 раз
Статус: √ проверено
Размер: 2.17 GB
Как cкачать? Как скачать Приговорённые 2: Охота в пустыне через торрент | qTorrent

% Раздел Тема Автор DL S | L
Фильмы 2015 [DVDrip, WEB-DLRip, HDrip] [ 1.42 GB ] Приговорённые 2: Охота в пустыне / The Condemned 2 [2015 BDRip-AVC от sokol_ok] Dub sokol_ok Скачать
2 | 0
Фильмы 2015 [DVDrip, WEB-DLRip, HDrip] [ 709 MB ] Приговорённые 2: Охота в пустыне / The Condemned 2 [2015 HDRip ] coc900 Скачать
1 | 0
Фильмы 2015 [DVDrip, WEB-DLRip, HDrip] [ 2.87 GB ] Приговорённые 2: Охота в пустыне / The Condemned 2 [2015 BDRip-AVC от sokol_ok] Dub sokol_ok Скачать
2 | 0
Фильмы 2015 [DVDrip, WEB-DLRip, HDrip] [ 1.37 GB ] Приговорённые 2: Охота в пустыне / The Condemned 2 [2015 HDRip ] Ворон Скачать
1 | 0
Фильмы [HD 720p, 1080p] (Хороший звук DUB, MVO) [ 10.73 GB ] Приговорённые 2: Охота в пустыне / The Condemned 2 [2015 BDRip 1080p ] Ворон Скачать
1 | 0

28-11-2019 20:33  

Отключить всю рекламу на сайте

20-01-2016 18:32 Приговорённые 2: Охота в пустыне Скачать торрент  

Очередной рестлер вошел в кинематограф))pb.wtf



21-01-2016 13:18 Приговорённые 2: Охота в пустыне Скачать торрент  

Зачем ему пистолет,он должен взглядом всех замочить!!!!!!pb.wtf



22-01-2016 19:50 Приговорённые 2: Охота в пустыне Скачать торрент  

mehanov2010 писал(а):

Зачем ему пистолет,он должен взглядом всех замочить!!!!!!

И ведь замочит!!!pb.wtf



    Дорогой пользователь! Огромная просьба, поблагодарите релизера, оцените раздачу и оставьте свои комментарий, если Вы скачали Приговорённые 2: Охота в пустыне через торрент бесплатно! Внесите свою лепту в развитие PiratBit!
    Комментировать посты могут только пользователи прошедшие не сложную регистрацию
    Показать сообщения:    

    Приговорённые 2: Охота в пустыне через торрент
    Скачать бесплатно Приговорённые 2: Охота в пустыне
    Приговорённые 2: Охота в пустыне скачать торрент
    Приговорённые 2: Охота в пустыне смотреть онлайн
    Cкачать фильм Приговорённые 2: Охота в пустыне бесплатно
    Приговорённые 2: Охота в пустыне скачать торрент в хорошем качестве
    Приговорённые 2: Охота в пустыне смотреть онлайн бесплатно в хорошем качестве


    Вы не можете начинать темы
    Вы не можете отвечать на сообщения
    Вы не можете редактировать свои сообщения
    Вы не можете удалять свои сообщения
    Вы не можете голосовать в опросах
    Вы не можете прикреплять файлы к сообщениям
    Вы можете скачивать файлы