Ссылка на приватное зеркало всего за 1$. Внимание количество ограничено!!!

OK

1+1

iTunes

мы

OK

1

WEB-DLRip

Джокер

Пифагор

Ведьмак / The Witcher сериал

iTunes

ПШазам

ОК

Оно 2

iTunes

30
pack

Вам бонус

ВАЖНО

!!Акция!!

Alien_RageХит недели

RePack

Resident Evil 21

ИГРА 18+

pack

RePack

jed

RePack

fifa19

RePack

Assassins Creed: Odyssey

RePack

NEED FOR SPEED™ PAYBACK

4 сезон

9 сезон

Бесстыжие 9 сезон

Все сериалы

все сериалы на PB.wtf

RePack

FAR CRY 5
  

Гостиная / The Keeping Room (Дэниэл Барбер) [2014, драма, HDRip, Любительский двухголосый [Parovoz Production] pb.wtf

Гостиная через торрент pb.wtf

Размер: 1.37 GB | Добавлен: 4 года назад | Торрент скачан:64 раза
Скачать  

20-01-2016 20:47 Гостиная Скачать торрент  


Гостиная / The Keeping Room
««Some things are worth fighting for»»

ИНФОРМАЦИЯ:
Год выпуска:2014
Страна: США
Жанр: драма
Продолжительность: 01:34:37
Перевод: Любительский двухголосый [Parovoz Production]
Режиссер: Дэниэл Барбер

В Ролях:


Брит Марлинг (Augusta), Хейли Стайнфелд (Louise), Сэм Уортингтон (Moses), Муна Отару (Mad), Кайл Соллер (Henry), Нед Деннехи (Caleb), Эми Натталл (Moll), Николас Пиннок (Bill), Анна-Мария Набирай (Alma), Луминита Филимон (Prudence), Чарльз Джармен (Carriage Driver), Delia Riciu (Mary)

Описание:
Действие ленты будет разворачиваться в последние дни Гражданской войны в США. В этой картине речь пойдёт о трёх женщинах - двух сёстрах и чернокожей рабыне, проживающих в одном доме на юге США и вынужденных защищаться от пары напавших на них фуражиров приближающейся вражеской армии.

  • Мировая премьера:8 сентября 2014

    ТЕХ.ДАННЫЕ:
    Качество: HDRip
    Формат: AVI
    Видео: XviD, 720x384 (1.875), 1790 kbps, 23,976 fps, 0,270 bpp
    Аудио: AC3 / 2.0 / 48 kHz / 192 kbps / 16 bit


    General
    Complete name : D:\Торенты\The.Keeping.Room.2014.DVO.HDRip.14OOMB.avi
    Format : AVI
    Format/Info : Audio Video Interleave
    File size : 1.37 GiB
    Duration : 1h 34mn
    Overall bit rate : 2 073 Kbps
    Writing application : VirtualDubMod 1.5.10.2 (build 2540/release)
    Writing library : VirtualDubMod build 2540/release

    Video
    ID : 0
    Format : MPEG-4 Visual
    Format profile : Advanced Simple@L5
    Format settings, BVOP : 2
    Format settings, QPel : No
    Format settings, GMC : No warppoints
    Format settings, Matrix : Default (MPEG)
    Codec ID : XVID
    Codec ID/Hint : XviD
    Duration : 1h 34mn
    Bit rate : 1 790 Kbps
    Width : 720 pixels
    Height : 384 pixels
    Display aspect ratio : 1.875
    Frame rate : 23.976 fps
    Color space : YUV
    Chroma subsampling : 4:2:0
    Bit depth : 8 bits
    Scan type : Progressive
    Compression mode : Lossy
    Bits/(Pixel*Frame) : 0.270
    Stream size : 1.18 GiB (86%)
    Writing library : XviD 1.2.1 (UTC 2008-12-04)

    Audio
    ID : 1
    Format : AC-3
    Format/Info : Audio Coding 3
    Mode extension : CM (complete main)
    Codec ID : 2000
    Duration : 1h 34mn
    Bit rate mode : Constant
    Bit rate : 192 Kbps
    Channel(s) : 2 channels
    Channel positions : Front: L R
    Sampling rate : 48.0 KHz
    Bit depth : 16 bits
    Compression mode : Lossy
    Stream size : 130 MiB (9%)
    Alignment : Split accross interleaves
    Скриншоты:

    © Оформление by .::Ворон::.
    pb.wtf
    !Ворон писал(а):

    Внимание, в релизе присутствует реклама казино в начале и конце фильма
    Реклама в новых релизах Кино?



  • Скачать Гостиная через торрент http://pic.kartinco.top/images/6/ordi9.jpg Скачать фильм Гостиная через торрент бесплантно в хорошем качестве Описание: Действие ленты будет разворачиваться в последние дни Гражданской войны в США. В этой картине речь пойдёт о трёх женщинах - двух ... 10 10 3
    Торрент: Зарегистрирован [2016-01-20 20:47] · скачан: 64 раз
    Статус: T временная
    Размер: 1.37 GB
    Как cкачать? Как скачать Гостиная через торрент | qTorrent

    % Раздел Тема Автор DL S | L
    T Фильмы 2014 (Звук TS, Cam, VO, DVO) [ 1.46 GB ] Гостиная / The Keeping Room [2014 BDRip] DVO [Parovoz Production] Twi7ter Скачать
    1 | 0
    Фильмы без перевода [ 1.36 GB ] Гостиная / The Keeping Room [2014 WEB-DLRip Перевод отсутствует Оригинал] makarevich Скачать
    1 | 0

    28-11-2019 20:33  

    Отключить всю рекламу на сайте

      Дорогой пользователь! Огромная просьба, поблагодарите релизера, оцените раздачу и оставьте свои комментарий, если Вы скачали Гостиная через торрент бесплатно! Внесите свою лепту в развитие PiratBit!
      Комментировать посты могут только пользователи прошедшие не сложную регистрацию
      Показать сообщения:    

      Гостиная через торрент
      Скачать бесплатно Гостиная
      Гостиная скачать торрент
      Гостиная смотреть онлайн
      Cкачать фильм Гостиная бесплатно
      Гостиная скачать торрент в хорошем качестве
      Гостиная смотреть онлайн бесплатно в хорошем качестве


      Вы не можете начинать темы
      Вы не можете отвечать на сообщения
      Вы не можете редактировать свои сообщения
      Вы не можете удалять свои сообщения
      Вы не можете голосовать в опросах
      Вы не можете прикреплять файлы к сообщениям
      Вы можете скачивать файлы