Ссылка на приватное зеркало нашего сайта всего за 1$. Внимание количество ограничено!!!

2 сезон

iTunes

1 сезон

1

iTunes

iTunes

iTunes

1 сезон

RePack

30

ИГРА 18+

pack

ВАЖНО

!!Акция!!

Alien_RageХит недели

RePack

MK11
pack

Забери бонус

RePack

jed

!!Акция!!

Alien_Rage

RePack

fifa19

RePack

Assassins Creed: Odyssey

RePack

NEED FOR SPEED™ PAYBACK

4 сезон

9 сезон

Бесстыжие 9 сезон

Все сериалы

все сериалы на PB.wtf

RePack

FAR CRY 5
  

Черная месса / Black Mass (Скотт Купер ) [2015, драма, криминал, биография, BDRip 720p от _denis_100 / NNNB] DUB, AVO + Original + Sub (2xRus,3xEng) pb.wtf

Черная месса через торрент pb.wtf

Размер: 5.9 GB | Добавлен: 4 года 7 мес. назад | Торрент скачан:110 раз
Скачать  

21-01-2016 09:39 Черная месса Скачать торрент  

Черная месса / Black Mass
«Тайный сговор ФБР и одного из самых жестоких гангстеров в истории»


Год выпуска: 2015
Страна: США, Великобритания
Жанр: драма, криминал, биография
Продолжительность: 02:02:37
Перевод: Дублированный, Авторский (одноголосый)
Субтитры: русские (Forced), русские, английские (English), английские (SDH), английские (SDH Colored)
Режиссер: Скотт Купер
В ролях: Джонни Депп , Джоэл Эдгертон , Бенедикт Камбербэтч , Кевин Бейкон , Джесси Племонс , Питер Сарсгаард , Кори Столл , Дакота Джонсон , Рори Кокрейн , Дэвид Харбор , Адам Скотт , Джулианна Николсон
Описание:
Картина расскажет об Уайти Балджере, знаменитом бостонском гангстере, который 16 лет находился в бегах и был арестован в июне 2011 года в Санта-Монике. Балджер, которому уже за 80, обвинялся в рэкете, был замешан в 19 убийствах и в то же время работал информатором на ФБР. Чтобы не попасть за решетку, он исчез в 1995 году и 16 лет успешно скрывался от правосудия.

R - Лицам до 17 лет обязательно присутствие взрослого
Качество: BDRip 720p
Контейнер (Расширение): MKV
Видео: 1280x534, 4976 Кбит/сек, 23,976 кадр/сек, 0,304 Бит/[Пиксели*Кадры]
Аудио №1: русский / AC3 / 5.1 / 48 kHz / 640 kbps / 16 bit |Дублированный|
Аудио №2: русский / AC3 / 5.1 / 48 kHz / 640 kbps / 16 bit |Авторский, М. Яроцкий|
Аудио №3: английский / AC3 / 5.1 / 48 kHz / 640 kbps / 16 bit
Навигация по главам(Чаптеры): естьАвтор рипа: Сообщество:

Код:

Format                                   : Matroska
Format version                           : Version 2
File size                                : 5.90 GiB
Duration                                 : 2h 2mn
Overall bit rate                         : 6 888 Kbps
Movie name                               : Black Mass.(2015).BDRip.720p.[denis100]
Encoded date                             : UTC 2016-02-28 10:20:37
Writing application                      : mkvmerge v5.8.0 ('No Sleep / Pillow') built on Sep  2 2012 15:37:04
Writing library                          : libebml v1.2.3 + libmatroska v1.3.0

Video
ID                                       : 1
Format                                   : AVC
Format/Info                              : Advanced Video Codec
Format profile                           : High@L4.1
Format settings, CABAC                   : Yes
Format settings, ReFrames                : 11 frames
Codec ID                                 : V_MPEG4/ISO/AVC
Duration                                 : 2h 2mn
Bit rate                                 : 4 976 Kbps
Width                                    : 1 280 pixels
Height                                   : 534 pixels
Display aspect ratio                     : 2.40:1
Frame rate                               : 23.976 fps
Color space                              : YUV
Chroma subsampling                       : 4:2:0
Bit depth                                : 8 bits
Scan type                                : Progressive
Bits/(Pixel*Frame)                       : 0.304
Stream size                              : 4.14 GiB (70%)
Title                                    : Black Mass.(2015).BDRip.720p.[denis100]
Writing library                          : x264 core 148 r2638 7599210
Encoding settings                        : cabac=1 / ref=11 / deblock=1:-3:-3 / analyse=0x3:0x133 / me=umh / subme=11 / psy=1 / psy_rd=1.00:0.00 / mixed_ref=1 / me_range=32 / chroma_me=1 / trellis=2 / 8x8dct=1 / cqm=0 / deadzone=21,11 / fast_pskip=0 / chroma_qp_offset=-2 / threads=6 / lookahead_threads=1 / sliced_threads=0 / nr=0 / decimate=1 / interlaced=0 / bluray_compat=0 / constrained_intra=0 / bframes=12 / b_pyramid=2 / b_adapt=2 / b_bias=0 / direct=3 / weightb=1 / open_gop=0 / weightp=2 / keyint=240 / keyint_min=23 / scenecut=40 / intra_refresh=0 / rc=2pass / mbtree=0 / bitrate=4976 / ratetol=1.0 / qcomp=0.60 / qpmin=0 / qpmax=69 / qpstep=4 / cplxblur=20.0 / qblur=0.5 / ip_ratio=1.40 / pb_ratio=1.30 / aq=1:1.00
Language                                 : English
Default                                  : Yes
Forced                                   : No

Audio #1
ID                                       : 2
Format                                   : AC-3
Format/Info                              : Audio Coding 3
Mode extension                           : CM (complete main)
Codec ID                                 : A_AC3
Duration                                 : 2h 2mn
Bit rate mode                            : Constant
Bit rate                                 : 640 Kbps
Channel(s)                               : 6 channels
Channel positions                        : Front: L C R, Side: L R, LFE
Sampling rate                            : 48.0 KHz
Bit depth                                : 16 bits
Compression mode                         : Lossy
Stream size                              : 561 MiB (9%)
Title                                    : Дублированный
Language                                 : Russian
Default                                  : Yes
Forced                                   : No

Audio #2
ID                                       : 3
Format                                   : AC-3
Format/Info                              : Audio Coding 3
Mode extension                           : CM (complete main)
Codec ID                                 : A_AC3
Duration                                 : 2h 2mn
Bit rate mode                            : Constant
Bit rate                                 : 640 Kbps
Channel(s)                               : 6 channels
Channel positions                        : Front: L C R, Side: L R, LFE
Sampling rate                            : 48.0 KHz
Bit depth                                : 16 bits
Compression mode                         : Lossy
Stream size                              : 561 MiB (9%)
Title                                    : Авторский, М. Яроцкий
Language                                 : Russian
Default                                  : No
Forced                                   : No

Audio #3
ID                                       : 4
Format                                   : AC-3
Format/Info                              : Audio Coding 3
Mode extension                           : CM (complete main)
Codec ID                                 : A_AC3
Duration                                 : 2h 2mn
Bit rate mode                            : Constant
Bit rate                                 : 640 Kbps
Channel(s)                               : 6 channels
Channel positions                        : Front: L C R, Side: L R, LFE
Sampling rate                            : 48.0 KHz
Bit depth                                : 16 bits
Compression mode                         : Lossy
Stream size                              : 561 MiB (9%)
Language                                 : English
Default                                  : No
Forced                                   : No

Text #1
ID                                       : 5
Format                                   : UTF-8
Codec ID                                 : S_TEXT/UTF8
Codec ID/Info                            : UTF-8 Plain Text
Title                                    : Forced
Language                                 : Russian
Default                                  : Yes
Forced                                   : No

Text #2
ID                                       : 6
Format                                   : UTF-8
Codec ID                                 : S_TEXT/UTF8
Codec ID/Info                            : UTF-8 Plain Text
Language                                 : Russian
Default                                  : No
Forced                                   : No

Text #3
ID                                       : 7
Format                                   : UTF-8
Codec ID                                 : S_TEXT/UTF8
Codec ID/Info                            : UTF-8 Plain Text
Title                                    : English
Language                                 : English
Default                                  : No
Forced                                   : No

Text #4
ID                                       : 8
Format                                   : UTF-8
Codec ID                                 : S_TEXT/UTF8
Codec ID/Info                            : UTF-8 Plain Text
Title                                    : SDH
Language                                 : English
Default                                  : No
Forced                                   : No

Text #5
ID                                       : 9
Format                                   : UTF-8
Codec ID                                 : S_TEXT/UTF8
Codec ID/Info                            : UTF-8 Plain Text
Title                                    : SDH Colored
Language                                 : English
Default                                  : No
Forced                                   : No

Menu
00:00:00.000                             : en:Chapter 01
00:09:44.250                             : en:Chapter 02
00:18:27.481                             : en:Chapter 03
00:31:21.796                             : en:Chapter 04
00:41:49.340                             : en:Chapter 05
00:51:58.740                             : en:Chapter 06
00:59:19.847                             : en:Chapter 07
01:09:17.653                             : en:Chapter 08
01:19:53.914                             : en:Chapter 09
01:28:47.530                             : en:Chapter 10
01:39:44.103                             : en:Chapter 11
01:52:18.398                             : en:Chapter 12
01:55:14.282                             : en:Chapter 13

x264 [info]: frame I:1266 Avg QP:13.88 size:126384
x264 [info]: frame P:32886 Avg QP:16.12 size: 49146
x264 [info]: frame B:142216 Avg QP:18.37 size: 19618
pb.wtf



Скачать Черная месса через торрент http://i75.fastpic.ru/big/2016/0121/ec/2a989e0c470bb3ed332ecd4bb012e6ec.png Скачать фильм Черная месса через торрент бесплантно в хорошем качестве Описание:Картина расскажет об Уайти Балджере, знаменитом бостонском гангстере, который 16 лет находился в бегах и был арестован в июне 2011 ... 8.9 10 12
Торрент: Зарегистрирован [2016-02-28 10:32] · скачан: 110 раз
Статус: √ проверено
Размер: 5.9 GB
Как cкачать? Как скачать Черная месса через торрент | qTorrent

% Раздел Тема Автор DL S | L
Ultra HD (UHD: 2K, 4K, 8K) — видео сверхвысокой чёткости [ 22.6 GB ] Черная месса / Black Mass [2015 биография UHD WEBRip 2160p] DUB + AVO [М. Яроцкий] sheker187 Скачать
1 | 0
Фильмы [HD 720p, 1080p] (Хороший звук DUB, MVO) [ 13.59 GB ] Черная месса / Black Mass [2015 биография BDRip 1080p] DUB + 2xAVO sheker187 Скачать
1 | 0
Фильмы 2015 [DVDrip, WEB-DLRip, HDrip] [ 1.46 GB ] Черная месса / Black Mass [2015 биография BDRip] DUB Twi7ter Скачать
1 | 0
Фильмы 2015 [DVDrip, WEB-DLRip, HDrip] [ 2.91 GB ] Черная месса / Black Mass [2015 биография BDRip-AVC от sokol_ok] DUB sokol_ok Скачать
2 | 0
Фильмы [HD 720p, 1080p] (Хороший звук DUB, MVO) [ 5.75 GB ] Черная месса / Black Mass [2015 биография BDRip 720p] DUB potroks Скачать
1 | 0
Фильмы (DVD фильмы) [ 6.27 GB ] Черная Месса / Black Mass [2015 биография DVD9] DUB R2 voovaz Скачать
1 | 0
Фильмы (Blu-ray, BD-Remux, HDDVD) [ 41.15 GB ] Черная месса / Black Mass [2015 биография Blu-ray] Russian Mafia Скачать
1 | 0

28-11-2019 20:33  

Отключить всю рекламу на сайте

28-02-2016 10:34 Черная месса Скачать торрент  

замена на Лицензию + авторский перевод + изменены сабыpb.wtf



    Дорогой пользователь! Огромная просьба, поблагодарите релизера, оцените раздачу и оставьте свои комментарий, если Вы скачали Черная месса через торрент бесплатно! Внесите свою лепту в развитие PiratBit!
    Комментировать посты могут только пользователи прошедшие не сложную регистрацию
    Показать сообщения:    

    Черная месса через торрент
    Скачать бесплатно Черная месса
    Черная месса скачать торрент
    Черная месса смотреть онлайн
    Cкачать фильм Черная месса бесплатно
    Черная месса скачать торрент в хорошем качестве
    Черная месса смотреть онлайн бесплатно в хорошем качестве


    Вы не можете начинать темы
    Вы не можете отвечать на сообщения
    Вы не можете редактировать свои сообщения
    Вы не можете удалять свои сообщения
    Вы не можете голосовать в опросах
    Вы не можете прикреплять файлы к сообщениям
    Вы можете скачивать файлы