Ссылка на приватное зеркало нашего сайта всего за 1$. Внимание количество ограничено!!!

2 сезон

iTunes

1 сезон

1

2 сезон

2 сезон

iTunes

1 сезон

RePack

30

Ultimate

ВАЖНО

ИГРА 18+

pack

RePack

MK11
pack

Забери бонус

RePack

jed

!!Акция!!

Alien_Rage

RePack

fifa19

RePack

Assassins Creed: Odyssey

RePack

NEED FOR SPEED™ PAYBACK

4 сезон

9 сезон

Бесстыжие 9 сезон

Все сериалы

все сериалы на PB.wtf

RePack

FAR CRY 5
  

Банда грабителей / Band of Robbers (Аарон Ни, Адам Ни) [2015, триллер, комедия, криминал, WEB-DLRip, Любительский двухголосый [Parovoz Production] pb.wtf

Банда грабителей через торрент pb.wtf

Размер: 1.45 GB | Добавлен: 4 года 10 мес. назад | Торрент скачан:157 раз
Скачать  

21-01-2016 15:16 Банда грабителей Скачать торрент  


Банда грабителей / Band of Robbers
««From Mark Twain's iconic books»»

ИНФОРМАЦИЯ:
Год выпуска:2015
Страна: США
Жанр: триллер, комедия, криминал, приключения
Продолжительность: 01:35:39
Перевод: Любительский двухголосый [Parovoz Production]
Режиссер: Аарон Ни, Адам Ни

В Ролях:


Кайл Галлнер (Huck Finn), Адам Ни (Tom Sawyer), Мэттью Грей Гублер (Joe Harper), Хэннибал Бёресс (Ben Rogers), Мелисса Бенойст (Becky Thatcher), Дэниэл Эдвард Мора (Jorge Jiminez), Стивен Лэнг (Injun Joe), Эрик Кристиан Олсен (Sid Sawyer), Джонни Пембертон (Tommy Barnes), Бет Грант (Widow Douglas), Купер Хукаби (Muff Potter), Ли Гарлингтон (Lt. Polly)

Описание:
«По мотивам произведений Марка Твена.»
Мелкий уголовник Гекльберри Финн выходит из заключения и хочет начать новую жизнь с чистого листа. Его планы нарушает друг детства, горе-полицейский, Том Сойер, до сих пор не отказавшийся от детской мечты – найти сокровища.

  • Мировая премьера:13 июня 2015

    ТЕХ.ДАННЫЕ:
    Качество: WEB-DLRip
    Формат: AVI
    Видео: XviD, 720x304 (2.35:1), 1888 kbps, 23,976 fps, 0,360 bpp
    Аудио: AC3 / 2.0 / 48 kHz / 192 kbps / 16 bit


    General
    Complete name : D:\Торенты\BanD0.GraB1teLey.2015.L2.WEB-DLRip.1490MB.rustorrents.avi
    Format : AVI
    Format/Info : Audio Video Interleave
    File size : 1.45 GiB
    Duration : 1h 35mn
    Overall bit rate : 2 175 Kbps
    Writing application : VirtualDubMod 1.5.10.3 | www.virtualdub-fr.org || (build 2550/release)
    Writing library : VirtualDubMod build 2550/release

    Video
    ID : 0
    Format : MPEG-4 Visual
    Format profile : Advanced Simple@L5
    Format settings, BVOP : 2
    Format settings, QPel : No
    Format settings, GMC : No warppoints
    Format settings, Matrix : Default (MPEG)
    Codec ID : XVID
    Codec ID/Hint : XviD
    Duration : 1h 35mn
    Bit rate : 1 888 Kbps
    Width : 720 pixels
    Height : 304 pixels
    Display aspect ratio : 2.35:1
    Frame rate : 23.976 fps
    Color space : YUV
    Chroma subsampling : 4:2:0
    Bit depth : 8 bits
    Scan type : Progressive
    Compression mode : Lossy
    Bits/(Pixel*Frame) : 0.360
    Stream size : 1.26 GiB (87%)
    Writing library : XviD 1.2.1 (UTC 2008-12-04)

    Audio
    ID : 1
    Format : AC-3
    Format/Info : Audio Coding 3
    Mode extension : CM (complete main)
    Codec ID : 2000
    Duration : 1h 35mn
    Bit rate mode : Constant
    Bit rate : 192 Kbps
    Channel(s) : 2 channels
    Channel positions : Front: L R
    Sampling rate : 48.0 KHz
    Bit depth : 16 bits
    Compression mode : Lossy
    Stream size : 131 MiB (9%)
    Alignment : Split accross interleaves
    Скриншоты:

    © Оформление by .::Ворон::.
    pb.wtf
    !Ворон писал(а):

    Присутствует реклама казино



  • Скачать Банда грабителей через торрент http://pic.kartinco.top/images/6/ordi9.jpg Скачать фильм Банда грабителей через торрент бесплантно в хорошем качестве Описание: «По мотивам произведений Марка Твена.»Мелкий уголовник Гекльберри Финн выходит из заключения и хочет начать новую жизнь с чистого ... 8.5 10 6
    Торрент: Зарегистрирован [2016-01-21 15:16] · скачан: 157 раз
    Статус: T временная
    Размер: 1.45 GB
    Как cкачать? Как скачать Банда грабителей через торрент | qTorrent

    % Раздел Тема Автор DL S | L
    T Фильмы (WEB-DL 720p, 1080p) [ 3.18 GB ] Банда грабителей / Band of Robbers [2015 WEB-DL 720p] VO Ворон Скачать
    1 | 0

    28-11-2019 20:33  

    Отключить всю рекламу на сайте

      Дорогой пользователь! Огромная просьба, поблагодарите релизера, оцените раздачу и оставьте свои комментарий, если Вы скачали Банда грабителей через торрент бесплатно! Внесите свою лепту в развитие PiratBit!
      Комментировать посты могут только пользователи прошедшие не сложную регистрацию
      Показать сообщения:    

      Банда грабителей через торрент
      Скачать бесплатно Банда грабителей
      Банда грабителей скачать торрент
      Банда грабителей смотреть онлайн
      Cкачать фильм Банда грабителей бесплатно
      Банда грабителей скачать торрент в хорошем качестве
      Банда грабителей смотреть онлайн бесплатно в хорошем качестве


      Вы не можете начинать темы
      Вы не можете отвечать на сообщения
      Вы не можете редактировать свои сообщения
      Вы не можете удалять свои сообщения
      Вы не можете голосовать в опросах
      Вы не можете прикреплять файлы к сообщениям
      Вы можете скачивать файлы