новый адрес
Ссылка на приватное зеркало всего за 1$. Внимание количество ограничено!!!

iTunes

1+1

iTunes

мы

WEB-DL

1

iTunes

Чернобыль

iTunes

Ральф против интернета

Лицензия

ПШазам

Лицензия

Оно 2

Лицензия

30
pack

Вам бонус

ВАЖНО

!!Акция!!

Alien_RageХит недели

RePack

Resident Evil 21

ИГРА 18+

pack

RePack

jed

!!Акция!!

Alien_Rage

RePack

fifa19

RePack

Assassins Creed: Odyssey

RePack

NEED FOR SPEED™ PAYBACK

3 сезон

9 сезон

Бесстыжие 9 сезон

Все сериалы

все сериалы на PB.wtf

RePack

FAR CRY 5
Ребята, катастрофически не хватает 1900р. для оплаты серверов за Октябрь (всвязи с блокировками трафик упал в 3 раза), 1-2р., выручайте.
  

Убить Кейна / Kill Kane (Адам Келли) [2016, триллер, криминал, WEB-DLRip, Любительский двухголосый [Parovoz Production] pb.wtf

Убить Кейна через торрент pb.wtf

Размер: 1.31 GB | Добавлен: 3 года 10 мес. назад | Торрент скачан:350 раз
Скачать  

21-01-2016 16:34 Убить Кейна Скачать торрент  


Убить Кейна / Kill Kane


ИНФОРМАЦИЯ:
Год выпуска:2016
Страна: Великобритания
Жанр: триллер, криминал
Продолжительность: 01:14:35
Перевод: Любительский двухголосый [Parovoz Production]
Режиссер: Адам Келли

В Ролях:


Винни Джонс (Ray Brookes), Шон Кронин (Kane Keegan), Николь Фарадей (Kim Brookes), Сара Александра Маркс (Victoria Brookes), Себастьян Стрит (DI Shelby), Ли Бэйн (News Reporter / Police Dispatcher, озвучка), Дэн Ричардсон (Frank Noonan), Конор Бору (Connor O'Brien), Джаред Морган (Dr. Regan), Кейн Серри (Jamie), Митчелл Фишер (Tommy Richards), Майкл Бэйли (Max Brookes)

Описание:
Мир учителя был разрушен, после убийства его жены и детей от рук безжалостной банды. Оставшись в одиночестве, он берет инициативу в свои руки и выходит на улицу в поисках справедливости...

  • Мировая премьера:18 января 2016

    ТЕХ.ДАННЫЕ:
    Качество: WEB-DLRip
    Формат: AVI
    Видео: XviD, 720x304 (2.35:1), 1635 kbps, 25 fps, 0,299 bpp
    Аудио №1: AC3 / 2.0 / 48 kHz / 384 kbps / Русский
    Аудио №2: AC3 / 5.1 / 48 kHz / 384 kbps / английский


    General
    Complete name : D:\Торенты\Ub1t.Ke1na.2016.L2.WEB-DLRip.1400MB..avi
    Format : AVI
    Format/Info : Audio Video Interleave
    File size : 1.31 GiB
    Duration : 1h 14mn
    Overall bit rate : 2 513 Kbps
    Writing application : VirtualDubMod 1.5.10.3 | www.virtualdub-fr.org || (build 2550/release)
    Writing library : VirtualDubMod build 2550/release

    Video
    ID : 0
    Format : MPEG-4 Visual
    Format profile : Advanced Simple@L5
    Format settings, BVOP : 2
    Format settings, QPel : No
    Format settings, GMC : No warppoints
    Format settings, Matrix : Default (MPEG)
    Codec ID : XVID
    Codec ID/Hint : XviD
    Duration : 1h 14mn
    Bit rate : 1 635 Kbps
    Width : 720 pixels
    Height : 304 pixels
    Display aspect ratio : 2.35:1
    Frame rate : 25.000 fps
    Color space : YUV
    Chroma subsampling : 4:2:0
    Bit depth : 8 bits
    Scan type : Progressive
    Compression mode : Lossy
    Bits/(Pixel*Frame) : 0.299
    Stream size : 872 MiB (65%)
    Writing library : XviD 1.2.1 (UTC 2008-12-04)

    Audio #1
    ID : 1
    Format : AC-3
    Format/Info : Audio Coding 3
    Mode extension : CM (complete main)
    Codec ID : 2000
    Duration : 1h 14mn
    Bit rate mode : Constant
    Bit rate : 384 Kbps
    Channel(s) : 2 channels
    Channel positions : Front: L R
    Sampling rate : 48.0 KHz
    Bit depth : 16 bits
    Compression mode : Lossy
    Stream size : 204 MiB (15%)
    Alignment : Split accross interleaves

    Audio #2
    ID : 2
    Format : AC-3
    Format/Info : Audio Coding 3
    Mode extension : CM (complete main)
    Codec ID : 2000
    Duration : 1h 14mn
    Bit rate mode : Constant
    Bit rate : 384 Kbps
    Channel(s) : 6 channels
    Channel positions : Front: L C R, Side: L R, LFE
    Sampling rate : 48.0 KHz
    Bit depth : 16 bits
    Compression mode : Lossy
    Stream size : 205 MiB (15%)
    Alignment : Split accross interleaves
    Скриншоты:

    © Оформление by .::Ворон::.
    pb.wtf
    !Ворон писал(а):

    Присутствует реклама казино



  • Скачать Убить Кейна через торрент http://pic.kartinco.top/images/6/ordi9.jpg Скачать фильм Убить Кейна через торрент бесплантно в хорошем качестве Описание: Мир учителя был разрушен, после убийства его жены и детей от рук безжалостной банды. Оставшись в одиночестве, он берет инициативу ... 8.7 10 12
    Торрент: Зарегистрирован [2016-01-21 16:36] · скачан: 350 раз
    Статус: T временная
    Размер: 1.31 GB
    Как cкачать? Как скачать Убить Кейна через торрент | qTorrent

    28-11-2019 20:33  

    Отключить всю рекламу на сайте

      Дорогой пользователь! Огромная просьба, поблагодарите релизера, оцените раздачу и оставьте свои комментарий, если Вы скачали Убить Кейна через торрент бесплатно! Внесите свою лепту в развитие PiratBit!
      Комментировать посты могут только пользователи прошедшие не сложную регистрацию
      Показать сообщения:    

      Убить Кейна через торрент
      Скачать бесплатно Убить Кейна
      Убить Кейна скачать торрент
      Убить Кейна смотреть онлайн
      Cкачать фильм Убить Кейна бесплатно
      Убить Кейна скачать торрент в хорошем качестве
      Убить Кейна смотреть онлайн бесплатно в хорошем качестве


      Вы не можете начинать темы
      Вы не можете отвечать на сообщения
      Вы не можете редактировать свои сообщения
      Вы не можете удалять свои сообщения
      Вы не можете голосовать в опросах
      Вы не можете прикреплять файлы к сообщениям
      Вы можете скачивать файлы