Ссылка на приватное зеркало нашего сайта всего за 1$. Внимание количество ограничено!!!

2 сезон

iTunes

1 сезон

1

iTunes

iTunes

iTunes

1 сезон

RePack

30

ИГРА 18+

pack

ВАЖНО

!!Акция!!

Alien_RageХит недели

RePack

MK11
pack

Забери бонус

RePack

jed

!!Акция!!

Alien_Rage

RePack

fifa19

RePack

Assassins Creed: Odyssey

RePack

NEED FOR SPEED™ PAYBACK

4 сезон

9 сезон

Бесстыжие 9 сезон

Все сериалы

все сериалы на PB.wtf

RePack

FAR CRY 5
  

Призрачный патруль / R.I.P.D. (Роберт Швентке / Robert Schwentke) [2013, фантастика, боевик, комедия, BDRip 720p от potroks] DUB + AVO pb.wtf

Призрачный патруль через торрент pb.wtf

Размер: 5.77 GB | Добавлен: 4 года 9 мес. назад | Торрент скачан:521 раз
Скачать  

21-01-2016 16:38 Призрачный патруль Скачать торрент  

Призрачный патруль / R.I.P.D.
«Они защищают наш мир от гостей с того света»
Год выпуска: 2013
Страна: США / Universal Pictures...
Жанр: фантастика, боевик, комедия
Продолжительность: 01:35:55
Перевод: Дубляж [BD DEE], Авторский (одноголосый) [А.Гаврилов, Л.Володарский]
Субтитры: русские (полные + форс.), украинские (полные + форс.), английские (Full + SDH + SDH-Colored)
Навигация по главам: есть
Режиссер: Роберт Швентке / Robert Schwentke
В ролях:

Джефф Бриджес (Roy), Райан Рейнольдс (Nick), Кевин Бейкон (Hayes), Мэри-Луиз Паркер (Proctor), Стефани Зостак (Julia), Джеймс Хонг (Nick's Avatar), Мариса Миллер (Roy's Avatar), Роберт Неппер (Stanley Nawicki), Майк О’Мэлли (Elliot), Девин Рэтрей (Pulaski), Ларри Джо Кэмпбелл (Officer Murphy), Майкл Кунс (Detective in Locker Room)
Описание: Детективы из загробного департамента расследуют преступления по ту сторону могилы и гоняются за не в меру ретивой нечистью. Молодой коп, после гибели от руки неизвестного злоумышленника угодивший в мир иной, в обмен на помощь при расследовании собственного убийства обязуется следующие сто лет посвятить службе в R.I.P.D. и, получив в напарники брутального стрелка эпохи вестернов, выходит на борьбу с неупокоившимся злом.

Качество: BDRip 720p
Формат: MKV
Видео кодек: AVC
Аудио кодек: AC3, DTS
Видео: 1280x544 (2.35:1), 5912 kbps, 23,976 fps, 0,354 bit/pixel
Аудио №1: DTS / 5.1 / 48 kHz / 755 kbps / 24 bit | DUB - BD CEE
Аудио №2: AC3 / 5.1 / 48 kHz / 640 kbps / 16 bit | AVO - А.Гаврилов
Аудио №3: AC3 / 5.1 / 48 kHz / 640 kbps / 16 bit | AVO - Л.Володарский
Аудио №4: AC3 / 5.1 / 48 kHz / 640 kbps / 16 bit | ENG

Релиз группы:
Автор рипа: potroks

Код:

General
Unique ID                                : 192623175041126842677695480597553268682 (0x90E9DFC3ABFC5F9EAF9F7101390AC7CA)
Complete name                            : N:\Фантастика\Prizrachnyi.Patrul.2013.DUB.AVO.ENG.BDRip.720p.-HELLYWOOD.mkv
Format                                   : Matroska
Format version                           : Version 4 / Version 2
File size                                : 5.77 GiB
Duration                                 : 1h 35mn
Overall bit rate                         : 8 605 Kbps
Movie name                               : R.I.P.D. (2013) - HELLYWOOD
Encoded date                             : UTC 2010-02-22 21:41:31
Writing application                      : mkvmerge v5.8.0 ('No Sleep / Pillow') built on Sep 30 2012 10:57:14
Writing library                          : libebml v1.3.0 + libmatroska v1.4.0

Video
ID                                       : 1
Format                                   : AVC
Format/Info                              : Advanced Video Codec
Format profile                           : High@L4.1
Format settings, CABAC                   : Yes
Format settings, ReFrames                : 9 frames
Codec ID                                 : V_MPEG4/ISO/AVC
Duration                                 : 1h 35mn
Bit rate                                 : 5 912 Kbps
Width                                    : 1 280 pixels
Height                                   : 544 pixels
Display aspect ratio                     : 2.35:1
Frame rate                               : 23.976 fps
Color space                              : YUV
Chroma subsampling                       : 4:2:0
Bit depth                                : 8 bits
Scan type                                : MBAFF
Bits/(Pixel*Frame)                       : 0.354
Stream size                              : 3.86 GiB (67%)
Title                                    : potroks
Writing library                          : x264 core 148 r2665M a01e339
Encoding settings                        : cabac=1 / ref=9 / deblock=1:-3:-3 / analyse=0x3:0x133 / me=umh / subme=11 / psy=1 / psy_rd=1.10:0.10 / mixed_ref=1 / me_range=48 / chroma_me=1 / trellis=2 / 8x8dct=1 / cqm=0 / deadzone=21,11 / fast_pskip=0 / chroma_qp_offset=-3 / threads=10 / lookahead_threads=2 / sliced_threads=0 / nr=0 / decimate=1 / interlaced=tff / bluray_compat=0 / constrained_intra=0 / bframes=10 / b_pyramid=2 / b_adapt=2 / b_bias=0 / direct=3 / weightb=1 / open_gop=0 / weightp=0 / keyint=240 / keyint_min=23 / scenecut=40 / intra_refresh=0 / rc=2pass / mbtree=0 / bitrate=5912 / ratetol=1.0 / qcomp=0.70 / qpmin=0 / qpmax=69 / qpstep=4 / cplxblur=20.0 / qblur=0.5 / ip_ratio=1.40 / pb_ratio=1.30 / aq=1:0.80
Language                                 : English
Default                                  : Yes
Forced                                   : No

Audio #1
ID                                       : 2
Format                                   : DTS
Format/Info                              : Digital Theater Systems
Codec ID                                 : A_DTS
Duration                                 : 1h 35mn
Bit rate mode                            : Constant
Bit rate                                 : 755 Kbps
Channel(s)                               : 6 channels
Channel positions                        : Front: L C R, Side: L R, LFE
Sampling rate                            : 48.0 KHz
Bit depth                                : 24 bits
Compression mode                         : Lossy
Stream size                              : 518 MiB (9%)
Title                                    : Dub | DTS 5.1 @ 768 kbps - Blu-Ray CEE
Language                                 : Russian
Default                                  : Yes
Forced                                   : No

Audio #2
ID                                       : 3
Format                                   : AC-3
Format/Info                              : Audio Coding 3
Mode extension                           : CM (complete main)
Codec ID                                 : A_AC3
Duration                                 : 1h 35mn
Bit rate mode                            : Constant
Bit rate                                 : 640 Kbps
Channel(s)                               : 6 channels
Channel positions                        : Front: L C R, Side: L R, LFE
Sampling rate                            : 48.0 KHz
Bit depth                                : 16 bits
Compression mode                         : Lossy
Stream size                              : 439 MiB (7%)
Title                                    : AVO | DD 5.1 @ 640 kbps - A.Gavrilov
Language                                 : Russian
Default                                  : No
Forced                                   : No

Audio #3
ID                                       : 4
Format                                   : AC-3
Format/Info                              : Audio Coding 3
Mode extension                           : CM (complete main)
Codec ID                                 : A_AC3
Duration                                 : 1h 35mn
Bit rate mode                            : Constant
Bit rate                                 : 640 Kbps
Channel(s)                               : 6 channels
Channel positions                        : Front: L C R, Side: L R, LFE
Sampling rate                            : 48.0 KHz
Bit depth                                : 16 bits
Compression mode                         : Lossy
Stream size                              : 439 MiB (7%)
Title                                    : AVO | DD 5.1 @ 640 kbps - L.Volodarskiy
Language                                 : Russian
Default                                  : No
Forced                                   : No

Audio #4
ID                                       : 5
Format                                   : AC-3
Format/Info                              : Audio Coding 3
Mode extension                           : CM (complete main)
Codec ID                                 : A_AC3
Duration                                 : 1h 35mn
Bit rate mode                            : Constant
Bit rate                                 : 640 Kbps
Channel(s)                               : 6 channels
Channel positions                        : Front: L C R, Side: L R, LFE
Sampling rate                            : 48.0 KHz
Bit depth                                : 16 bits
Compression mode                         : Lossy
Stream size                              : 439 MiB (7%)
Title                                    : Original | DD 5.1 @ 640 kbps
Language                                 : English
Default                                  : No
Forced                                   : No

Text #1
ID                                       : 6
Format                                   : UTF-8
Codec ID                                 : S_TEXT/UTF8
Codec ID/Info                            : UTF-8 Plain Text
Title                                    : Forced
Language                                 : Russian
Default                                  : Yes
Forced                                   : No

Text #2
ID                                       : 7
Format                                   : UTF-8
Codec ID                                 : S_TEXT/UTF8
Codec ID/Info                            : UTF-8 Plain Text
Title                                    : Blu-Ray
Language                                 : Russian
Default                                  : No
Forced                                   : No

Text #3
ID                                       : 8
Format                                   : UTF-8
Codec ID                                 : S_TEXT/UTF8
Codec ID/Info                            : UTF-8 Plain Text
Title                                    : Notabenoid
Language                                 : Russian
Default                                  : No
Forced                                   : No

Text #4
ID                                       : 9
Format                                   : UTF-8
Codec ID                                 : S_TEXT/UTF8
Codec ID/Info                            : UTF-8 Plain Text
Title                                    : Forced
Language                                 : Ukrainian
Default                                  : No
Forced                                   : No

Text #5
ID                                       : 10
Format                                   : UTF-8
Codec ID                                 : S_TEXT/UTF8
Codec ID/Info                            : UTF-8 Plain Text
Title                                    : Blu-Ray
Language                                 : Ukrainian
Default                                  : No
Forced                                   : No

Text #6
ID                                       : 11
Format                                   : UTF-8
Codec ID                                 : S_TEXT/UTF8
Codec ID/Info                            : UTF-8 Plain Text
Title                                    : Full
Language                                 : English
Default                                  : No
Forced                                   : No

Text #7
ID                                       : 12
Format                                   : UTF-8
Codec ID                                 : S_TEXT/UTF8
Codec ID/Info                            : UTF-8 Plain Text
Title                                    : SDH
Language                                 : English
Default                                  : No
Forced                                   : No

Text #8
ID                                       : 13
Format                                   : UTF-8
Codec ID                                 : S_TEXT/UTF8
Codec ID/Info                            : UTF-8 Plain Text
Title                                    : SDH-Colored
Language                                 : English
Default                                  : No
Forced                                   : No

Menu
00:00:00.000                             : :00:00:00.000
00:03:57.112                             : :00:03:57.112
00:09:13.136                             : :00:09:13.136
00:14:30.578                             : :00:14:30.578
00:17:58.411                             : :00:17:58.411
00:22:30.599                             : :00:22:30.599
00:27:09.503                             : :00:27:09.503
00:33:33.511                             : :00:33:33.511
00:38:46.157                             : :00:38:46.157
00:43:27.647                             : :00:43:27.647
00:46:31.747                             : :00:46:31.747
00:52:04.038                             : :00:52:04.038
00:55:52.099                             : :00:55:52.099
01:02:15.982                             : :01:02:15.982
01:07:01.100                             : :01:07:01.100
01:10:35.689                             : :01:10:35.690
01:13:16.309                             : :01:13:16.309
01:17:52.126                             : :01:17:52.126
01:23:00.934                             : :01:23:00.934
01:27:27.909                             : :01:27:27.909

pb.wtf



Скачать Призрачный патруль через торрент http://i76.fastpic.ru/big/2016/0121/99/d909ad08c58e699c84e51c8d9ccd3d99.png Скачать фильм Призрачный патруль через торрент бесплантно в хорошем качестве Описание: Детективы из загробного департамента расследуют преступления по ту сторону могилы и гоняются за не в меру ретивой нечистью. ... 9.9 10 15
Info! Золотая раздача, скачанное не засчитывается.
Торрент: Зарегистрирован [2016-01-21 16:38] · скачан: 521 раз
Статус: √ проверено
Размер: 5.77 GB
Как cкачать? Как скачать Призрачный патруль через торрент | qTorrent

% Раздел Тема Автор DL S | L
# Фильмы 2013 [DVDrip, WEB-DLRip, HDrip] [ 1.37 GB ] Призрачный патруль / R.I.P.D. [2013 BDRip-AVC-Hi10P] DUB AVO Eng Sub serg7628 Скачать
1 | 0

28-11-2019 20:33  

Отключить всю рекламу на сайте

21-01-2016 16:55 Призрачный патруль Скачать торрент  

Отличное кино, кто не смотрел советую к просмотру !pb.wtf



21-01-2016 16:59 Призрачный патруль Скачать торрент  

вот смотрите какая разница в мнениях, фильм 2013 года и я даже его не досмотрел настолько он тупой и дешевый что аж тошнит. pb.wtf



21-01-2016 18:17 Призрачный патруль Скачать торрент  

Predator87 писал(а):

вот смотрите какая разница в мнениях, фильм 2013 года и я даже его не досмотрел настолько он тупой и дешевый что аж тошнит.

Прям боюсь спрашивать тогда..
Какую фантастику ты смотришь?
Накинь примерыpb.wtf



21-01-2016 18:37 Призрачный патруль Скачать торрент  

Коротко о фильме "Рука-лицо"pb.wtf



22-01-2016 04:55 Призрачный патруль Скачать торрент  

Predator87 писал(а):

вот смотрите какая разница в мнениях, фильм 2013 года и я даже его не досмотрел настолько он тупой и дешевый что аж тошнит.

Фильм нормальный.А вот вы, вроде как и в школе не учились.pb.wtf



    Дорогой пользователь! Огромная просьба, поблагодарите релизера, оцените раздачу и оставьте свои комментарий, если Вы скачали Призрачный патруль через торрент бесплатно! Внесите свою лепту в развитие PiratBit!
    Комментировать посты могут только пользователи прошедшие не сложную регистрацию
    Показать сообщения:    

    Призрачный патруль через торрент
    Скачать бесплатно Призрачный патруль
    Призрачный патруль скачать торрент
    Призрачный патруль смотреть онлайн
    Cкачать фильм Призрачный патруль бесплатно
    Призрачный патруль скачать торрент в хорошем качестве
    Призрачный патруль смотреть онлайн бесплатно в хорошем качестве


    Вы не можете начинать темы
    Вы не можете отвечать на сообщения
    Вы не можете редактировать свои сообщения
    Вы не можете удалять свои сообщения
    Вы не можете голосовать в опросах
    Вы не можете прикреплять файлы к сообщениям
    Вы можете скачивать файлы