Ссылка на приватное зеркало всего за 1$. Внимание количество ограничено!!!

OK

1+1

iTunes

мы

OK

1

WEB-DLRip

Джокер

Пифагор

Ведьмак / The Witcher сериал

iTunes

ПШазам

ОК

Оно 2

iTunes

30
pack

Вам бонус

ВАЖНО

!!Акция!!

Alien_RageХит недели

RePack

Resident Evil 21

ИГРА 18+

pack

RePack

jed

RePack

fifa19

RePack

Assassins Creed: Odyssey

RePack

NEED FOR SPEED™ PAYBACK

4 сезон

9 сезон

Бесстыжие 9 сезон

Все сериалы

все сериалы на PB.wtf

RePack

FAR CRY 5
  

Приговорённые 2: Охота в пустыне / The Condemned 2 (Роэль Рейн) [2015 г., боевик, триллер, HDRip, Дубляж iTunes] pb.wtf

Приговорённые 2: Охота в пустыне через торрент pb.wtf

Размер: 709 MB | Добавлен: 4 года назад | Торрент скачан:161 раз
Скачать  

21-01-2016 17:56 Приговорённые 2: Охота в пустыне Скачать торрент  

Приговорённые 2: Охота в пустыне / The Condemned 2
Год выпуска: 2015
Страна: США / WWE Studios
Жанр: боевик, триллер
Продолжительность: 01:30:14
Перевод: Дубляж (iTunes)

Режиссер: Роэль Рейн

IMDB 4.20 (672)


В ролях: Рэнди Ортон, Эрик Робертс, Уэс Стьюди, Стивен Майкл Квезада, Билл Стинчкомб, Алекс Найт, Дилан Кенин, Майкл Шитс, Дон Бикнелл, Марк Сивертсен

Описание: Уилл Таннер из тех, кто выбрал для себя профессию «охотников за головами». Однажды он попадает в серьезные неприятности: его задерживает полиция, и ему выносят приговор. Его и бывшую его команду вовлекают в игру на выживание под объективами камер в угоду интересам благополучной публики. Ставки сделаны, приговоренные должны проявить в жестких обстоятельствах максимум своих способностей: сражаться и избегать ловушек, быть выносливыми и изобретательными.

Качество: HDRip
Формат: AVI
Видео кодек: XviD
Аудио кодек: MP3
Видео: 640x360 (1.78:1), 23.976 fps, XviD build 50 ~960 kbps avg, 0.17 bit/pixel
Аудио: 48 kHz, MPEG Layer 3, 2 ch, ~128.00 kbps avg
скриншот   скриншот   скриншот   скриншот   скриншот   скриншот  

Общее
Полное имя : F:\кино\Приговорённые 2. Охота в пустыне.2015.HDRip.700mb.avi
Формат : AVI
Формат/Информация : Audio Video Interleave
Размер файла : 709 Мбайт
Продолжительность : 1 ч. 30 м.
Общий поток : 1098 Кбит/сек
Программа кодирования : VirtualDubMod 1.5.10.3 | www.virtualdub-fr.org || (build 2550/release)
Библиотека кодирования : VirtualDubMod build 2550/release

Видео
Идентификатор : 0
Формат : MPEG-4 Visual
Профиль формата : Advanced Simple@L5
Параметр BVOP формата : 2
Параметр QPel формата : Нет
Параметр GMC формата : Без точки перехода
Параметр матрицы формата : Default (H.263)
Идентификатор кодека : XVID
Идентификатор кодека/Подсказка : XviD
Продолжительность : 1 ч. 30 м.
Битрейт : 961 Кбит/сек
Ширина : 640 пикселей
Высота : 360 пикселей
Соотношение сторон : 16:9
Частота кадров : 23,976 (23976/1000) кадра/сек
Цветовое пространство : YUV
Субдискретизация насыщенности : 4:2:0
Битовая глубина : 8 бит
Тип развёртки : Прогрессивная
Метод сжатия : С потерями
Бит/(Пиксели*Кадры) : 0.174
Размер потока : 620 Мбайт (87%)
Библиотека кодирования : XviD 1.2.1 (UTC 2008-12-04)

Аудио
Идентификатор : 1
Формат : MPEG Audio
Версия формата : Version 1
Профиль формата : Layer 3
Режим : Joint stereo
Идентификатор кодека : 55
Идентификатор кодека/Подсказка : MP3
Продолжительность : 1 ч. 30 м.
Вид битрейта : Постоянный
Битрейт : 128 Кбит/сек
Каналы : 2 канала
Частота : 48,0 КГц
Метод сжатия : С потерями
Размер потока : 82,6 Мбайт (12%)
Выравнивание : Соединение по промежуткам
Продолжительность промежутка : 42 мс. (1,00 видеокадр)
Время предзагрузки промежутка : 504 мс.
Библиотека кодирования : LAME3.99r
Настройки программы : -m j -V 4 -q 2 -lowpass 17 -b 128

pb.wtf



Скачать Приговорённые 2: Охота в пустыне через торрент http://pic.kartinco.top/images/11/zijif.jpg Скачать фильм Приговорённые 2: Охота в пустыне через торрент бесплантно в хорошем качестве Описание: Уилл Таннер из тех, кто выбрал для себя профессию «охотников за головами». Однажды он попадает в серьезные неприятности: его ... 9.6 10 10
Info! Золотая раздача, скачанное не засчитывается.
Торрент: Зарегистрирован [2016-01-21 17:56] · скачан: 161 раз
Статус: √ проверено
Размер: 709 MB
Как cкачать? Как скачать Приговорённые 2: Охота в пустыне через торрент | qTorrent

% Раздел Тема Автор DL S | L
Фильмы 2015 [DVDrip, WEB-DLRip, HDrip] [ 2.17 GB ] Приговорённые 2: Охота в пустыне / The Condemned 2 [2015 BDRip-AVC] Dub potroks Скачать
1 | 0
Фильмы 2015 [DVDrip, WEB-DLRip, HDrip] [ 1.42 GB ] Приговорённые 2: Охота в пустыне / The Condemned 2 [2015 BDRip-AVC от sokol_ok] Dub sokol_ok Скачать
2 | 0
Фильмы 2015 [DVDrip, WEB-DLRip, HDrip] [ 2.87 GB ] Приговорённые 2: Охота в пустыне / The Condemned 2 [2015 BDRip-AVC от sokol_ok] Dub sokol_ok Скачать
2 | 0
Фильмы 2015 [DVDrip, WEB-DLRip, HDrip] [ 1.37 GB ] Приговорённые 2: Охота в пустыне / The Condemned 2 [2015 HDRip ] Ворон Скачать
2 | 0
Фильмы [HD 720p, 1080p] (Хороший звук DUB, MVO) [ 10.73 GB ] Приговорённые 2: Охота в пустыне / The Condemned 2 [2015 BDRip 1080p ] Ворон Скачать
1 | 0

28-11-2019 20:33  

Отключить всю рекламу на сайте

22-01-2016 12:06 Приговорённые 2: Охота в пустыне Скачать торрент  

спасибо за размерpb.wtf



    Дорогой пользователь! Огромная просьба, поблагодарите релизера, оцените раздачу и оставьте свои комментарий, если Вы скачали Приговорённые 2: Охота в пустыне через торрент бесплатно! Внесите свою лепту в развитие PiratBit!
    Комментировать посты могут только пользователи прошедшие не сложную регистрацию
    Показать сообщения:    

    Приговорённые 2: Охота в пустыне через торрент
    Скачать бесплатно Приговорённые 2: Охота в пустыне
    Приговорённые 2: Охота в пустыне скачать торрент
    Приговорённые 2: Охота в пустыне смотреть онлайн
    Cкачать фильм Приговорённые 2: Охота в пустыне бесплатно
    Приговорённые 2: Охота в пустыне скачать торрент в хорошем качестве
    Приговорённые 2: Охота в пустыне смотреть онлайн бесплатно в хорошем качестве


    Вы не можете начинать темы
    Вы не можете отвечать на сообщения
    Вы не можете редактировать свои сообщения
    Вы не можете удалять свои сообщения
    Вы не можете голосовать в опросах
    Вы не можете прикреплять файлы к сообщениям
    Вы можете скачивать файлы