Ссылка на приватное зеркало нашего сайта всего за 1$. Внимание количество ограничено!!!

2 сезон

iTunes

1 сезон

1

2 сезон

2 сезон

iTunes

1 сезон

RePack

30

Ultimate

ВАЖНО

ИГРА 18+

pack

RePack

MK11
pack

Забери бонус

RePack

jed

!!Акция!!

Alien_Rage

RePack

fifa19

RePack

Assassins Creed: Odyssey

RePack

NEED FOR SPEED™ PAYBACK

4 сезон

9 сезон

Бесстыжие 9 сезон

Все сериалы

все сериалы на PB.wtf

RePack

FAR CRY 5
  

Сталин против Ленина. Поверженный кумир. (Андрей Симонов) [2016 г., документальный, история, WEBRip, Русский] pb.wtf

Сталин против Ленина. Поверженный кумир. через торрент pb.wtf

Размер: 125 MB | Добавлен: 4 года 10 мес. назад | Торрент скачан:86 раз
Скачать  

22-01-2016 04:36 Сталин против Ленина. Поверженный кумир. Скачать торрент  

Сталин против Ленина. Поверженный кумир.

Год выпуска: 2016
Страна: Россия
Жанр: документальный, история
Продолжительность: 00:39:02
Перевод: Не требуется Русский

Режиссер: Андрей Симонов

Описание: В самом начале ХХ века, когда Сталин не носил ещё такого звучного псевдонима, а был рядовым революционером-подпольщиком Иосифом Джугашвили из Тифлиса, его кумиром был Ленин. "Он преклонялся перед Лениным, боготворил Ленина. Он жил его мыслями, копировал его настолько, что мы в насмешку называли его "левой ногой Ленина", – вспоминал революционер Р. Арсенидзе. После первой встречи с Лениным в 1905 году на партийной конференции в финском Таммерфорсе, Иосиф был немало разочарован. Вместо вождя-"великана", перед ним предстал самый обыкновенный человек. Именно тогда у грузинского подпольщика впервые промелькнула мысль, что на месте Ленина может оказаться любой, стоит лишь найти свою тропу на Олимп власти.

Качество: WEBRip
Формат: MP4
Видео кодек: AVC
Аудио кодек: AAC
Видео: AVC, 640x360 (16:9), 25.000 fps, 349 Kbps (0.061 bit/pixel)
Аудио: AAC LC, 44.1 KHz, 2 ch, 96.0 Kbps, VBR (Russian)

Код:

Формат                                   : MPEG-4
Профиль формата                          : Base Media / Version 2
Идентификатор кодека                     : mp42
Размер файла                             : 125 Мбайт
Продолжительность                        : 39 м.
Режим общего битрейта                    : Переменный
Общий поток                              : 447 Кбит/сек
Дата кодирования                         : UTC 2016-01-21 08:49:45
Дата пометки                             : UTC 2016-01-21 08:49:45
gsst                                     : 0
gstd                                     : 2342823

Видео
Идентификатор                            : 1
Формат                                   : AVC
Формат/Информация                        : Advanced Video Codec
Профиль формата                          : Baseline@L3
Параметр CABAC формата                   : Нет
Параметр ReFrames формата                : 1 кадр
Параметр GOP формата                     : M=1, N=60
Идентификатор кодека                     : avc1
Идентификатор кодека/Информация          : Advanced Video Coding
Продолжительность                        : 39 м.
Битрейт                                  : 349 Кбит/сек
Максимальный битрейт                     : 1677 Кбит/сек
Ширина                                   : 640 пикселей
Высота                                   : 360 пикселей
Соотношение сторон                       : 16:9
Режим частоты кадров                     : Постоянный
Частота кадров                           : 25,000 кадров/сек
Цветовое пространство                    : YUV
Субдискретизация насыщенности            : 4:2:0
Битовая глубина                          : 8 бит
Тип развёртки                            : Прогрессивная
Бит/(Пиксели*Кадры)                      : 0.061
Размер потока                            : 97,5 Мбайт (78%)
Дата пометки                             : UTC 2016-01-21 08:49:50

Аудио
Идентификатор                            : 2
Формат                                   : AAC
Формат/Информация                        : Advanced Audio Codec
Профиль формата                          : LC
Идентификатор кодека                     : 40
Продолжительность                        : 39 м.
Вид битрейта                             : Переменный
Битрейт                                  : 96,0 Кбит/сек
Максимальный битрейт                     : 103 Кбит/сек
Каналы                                   : 2 канала
Расположение каналов                     : Front: L R
Частота                                  : 44,1 КГц
Метод сжатия                             : С потерями
Размер потока                            : 26,8 Мбайт (21%)
Заголовок                                : IsoMedia File Produced by Google, 5-11-2011
Язык                                     : Russian
Дата кодирования                         : UTC 2016-01-21 08:49:47
Дата пометки                             : UTC 2016-01-21 08:49:50

pb.wtf



Скачать Сталин против Ленина. Поверженный кумир. через торрент http://s020.radikal.ru/i709/1601/05/cb3936f1917a.png Скачать фильм Сталин против Ленина. Поверженный кумир. через торрент бесплантно в хорошем качестве Описание: В самом начале ХХ века, когда Сталин не носил ещё такого звучного псевдонима, а был рядовым революционером-подпольщиком Иосифом ... 8.5 10 6
Торрент: Зарегистрирован [2016-01-22 04:36] · скачан: 86 раз
Статус: √ проверено
Размер: 125 MB
Как cкачать? Как скачать Сталин против Ленина. Поверженный кумир. через торрент | qTorrent

28-11-2019 20:33  

Отключить всю рекламу на сайте

22-01-2016 10:15 Сталин против Ленина. Поверженный кумир. Скачать торрент  

Спасибо, годнота!pb.wtf



    Дорогой пользователь! Огромная просьба, поблагодарите релизера, оцените раздачу и оставьте свои комментарий, если Вы скачали Сталин против Ленина. Поверженный кумир. через торрент бесплатно! Внесите свою лепту в развитие PiratBit!
    Комментировать посты могут только пользователи прошедшие не сложную регистрацию
    Показать сообщения:    

    Сталин против Ленина. Поверженный кумир. через торрент
    Скачать бесплатно Сталин против Ленина. Поверженный кумир.
    Сталин против Ленина. Поверженный кумир. скачать торрент
    Сталин против Ленина. Поверженный кумир. смотреть онлайн
    Cкачать фильм Сталин против Ленина. Поверженный кумир. бесплатно
    Сталин против Ленина. Поверженный кумир. скачать торрент в хорошем качестве
    Сталин против Ленина. Поверженный кумир. смотреть онлайн бесплатно в хорошем качестве


    Вы не можете начинать темы
    Вы не можете отвечать на сообщения
    Вы не можете редактировать свои сообщения
    Вы не можете удалять свои сообщения
    Вы не можете голосовать в опросах
    Вы не можете прикреплять файлы к сообщениям
    Вы можете скачивать файлы