1 сезон

1 сезон

iTunes

1

КиноПоиск HD

Кинопоиск HD

iTunes

13

1 сезон

RePack

30

Ultimate

ВАЖНО

ИГРА 18+

pack

RePack

MK11
pack

Легкие деньги

RePack

jed

RePack

fifa19

RePack

RDR2

RePack

NEED FOR SPEED™ PAYBACK

4 сезон

9 сезон

Бесстыжие 9 сезон

Все сериалы

все сериалы на PB.wtf

RePack

FAR CRY 5
  
Magnet ссылка

Мексиканец / The Mexican (Гор Вербински) [2001, мелодрама, комедия, криминал, приключения, BDRip AVC by msltel] DUB, MVO, 2 x AVO pb.wtf

Мексиканец через торрент pb.wtf

Размер: 3.63 GB | Добавлен: 5 лет 3 мес. назад | Торрент скачан:57 раз
Скачать  

22-01-2016 13:56 Мексиканец Скачать торрент  

Название: Мексиканец
Оригинальное название: The Mexican
Год выпуска: 2001
Страна: США
Жанр: мелодрама, комедия, криминал, приключения
Продолжительность: 02:03:29
Перевод: дублированный профессиональный многоголосый, авторский

Режиссёр: Гор Вербински

В ролях: Брэд Питт, Джулия Робертс, Джеймс Гандольфини, Дж.К. Симмонс, Боб Бэлабан, Шерман Огастас, Майкл Серверис, Джин Хэкмен, Ричард Кока, Дэвид Крамхолц, Кастуло Герра, Майра Сербуло, Сальвадор Санчес, Алан Сьянгеротти, Мелиса Ромеро, Эрнесто Гомес Крус, Дэниэл Эскобар, Дэйл Рауль, Джереми Робертс, Жорже Малпика, Педро Армендарис мл., Стив Росси, Клинт Кертис, Лоуренс Бендер, Ариан Пеллисер, Карлос Лакамара, Дэниэл Зацапа, Альфредо Эскобар, Луис Артагнан, Фермин Мартинес, Хосе Карлос Родригез

Описание: Мелкий гангстер Джерри Уэлбах получает в один день сразу два ультиматума. Его босс, главарь банды, требует, чтобы Джерри срочно разыскал в Мексике бесценный антикварный пистолет, прозванный «Мексиканец», или… незамедлительно вернул все долги. Его подружка Саманта тоже ставит вопрос ребром: или она, или банда. Из двух зол Джерри выбирает меньшее и отправляется в Мексику за пистолетом. Но вскоре выясняется, что заполучить «Мексиканца» мечтает не только он, но и два профессиональных киллера...



Качество: BDRip AVC Сравнение с исходником
Формат: MKV
Видео: MPEG-4 AVC, 2284 Kбит/с, 1024x442, 23,976 кадра/с
Аудио 1: русский, AC3, 192 kbps, 2 ch, 48 kHz [дублированный]
Аудио 2: русский, AC3, 384 kbps, 6 ch, 48 kHz [профессиональный многоголосый, Премьер Видео]
Аудио 3: русский, AC3, 448 kbps, 6 ch, 48 kHz [авторский, Юрий Живов]
Аудио 4: русский, AC3, 448 kbps, 6 ch, 48 kHz [авторский, Алексей Киселёв]
Аудио 5: английский, AC3, 448 kbps, 6 ch, 48 kHz [оригинал]
Субтитры 1: русские
Субтитры 2: английские
Общее
Уникальный идентификатор : 176771788134482905396333728458037599107 (0x84FD020CE2879955B6F3692035151B83)
Полное имя : D:\Video\Мексиканец.2001.BDRip.AVC.mkv
Формат : Matroska
Версия формата : Version 4 / Version 2
Размер файла : 3,63 Гбайт
Продолжительность : 2 ч. 3 м.
Общий поток : 4206 Кбит/сек
Дата кодирования : UTC 2016-01-22 12:33:45
Программа кодирования : mkvmerge v8.2.0 ('World of Adventure') 64bit
Библиотека кодирования : libebml v1.3.1 + libmatroska v1.4.2

Видео
Идентификатор : 1
Формат : AVC
Формат/Информация : Advanced Video Codec
Профиль формата : High@L4.1
Параметр CABAC формата : Да
Параметр ReFrames формата : 9 кадров
Идентификатор кодека : V_MPEG4/ISO/AVC
Продолжительность : 2 ч. 3 м.
Битрейт : 2284 Кбит/сек
Ширина : 1024 пикселя
Высота : 442 пикселя
Соотношение сторон : 2,35:1
Режим частоты кадров : Постоянный
Частота кадров : 23,976 (24000/1001) кадра/сек
Цветовое пространство : YUV
Субдискретизация насыщенности : 4:2:0
Битовая глубина : 8 бит
Тип развёртки : Прогрессивная
Бит/(Пиксели*Кадры) : 0.210
Размер потока : 1,97 Гбайт (54%)
Библиотека кодирования : x264 core 146 r2538 121396c
Настройки программы : cabac=1 / ref=9 / deblock=1:-2:-2 / analyse=0x3:0x113 / me=umh / subme=10 / psy=1 / psy_rd=1.00:0.15 / mixed_ref=1 / me_range=32 / chroma_me=1 / trellis=2 / 8x8dct=1 / cqm=0 / deadzone=21,11 / fast_pskip=1 / chroma_qp_offset=-3 / threads=6 / lookahead_threads=1 / sliced_threads=0 / nr=0 / decimate=1 / interlaced=0 / bluray_compat=0 / constrained_intra=0 / bframes=9 / b_pyramid=2 / b_adapt=2 / b_bias=0 / direct=1 / weightb=1 / open_gop=0 / weightp=2 / keyint=230 / keyint_min=23 / scenecut=40 / intra_refresh=0 / rc_lookahead=40 / rc=crf / mbtree=0 / crf=19.1 / qcomp=0.60 / qpmin=0 / qpmax=69 / qpstep=4 / vbv_maxrate=40000 / vbv_bufsize=50000 / crf_max=0.0 / nal_hrd=none / filler=0 / ip_ratio=1.40 / pb_ratio=1.30 / aq=1:1.00
Язык : English
Default : Да
Forced : Нет

Аудио #1
Идентификатор : 2
Формат : AC-3
Формат/Информация : Audio Coding 3
Расширение режима : CM (complete main)
Параметр Endianness формата : Big
Идентификатор кодека : A_AC3
Продолжительность : 2 ч. 3 м.
Вид битрейта : Постоянный
Битрейт : 192 Кбит/сек
Каналы : 2 канала
Расположение каналов : Front: L R
Частота : 48,0 КГц
Частота кадров : 31,250 кадров/сек (1536 spf)
Метод сжатия : С потерями
Размер потока : 170 Мбайт (5%)
Заголовок : DUB
Язык : Russian
Default : Да
Forced : Нет

Аудио #2
Идентификатор : 3
Формат : AC-3
Формат/Информация : Audio Coding 3
Расширение режима : CM (complete main)
Параметр Endianness формата : Big
Идентификатор кодека : A_AC3
Продолжительность : 2 ч. 3 м.
Вид битрейта : Постоянный
Битрейт : 384 Кбит/сек
Каналы : 6 каналов
Расположение каналов : Front: L C R, Side: L R, LFE
Частота : 48,0 КГц
Частота кадров : 31,250 кадров/сек (1536 spf)
Метод сжатия : С потерями
Размер потока : 339 Мбайт (9%)
Заголовок : MVO (Премьер Видео)
Язык : Russian
Default : Нет
Forced : Нет

Аудио #3
Идентификатор : 4
Формат : AC-3
Формат/Информация : Audio Coding 3
Расширение режима : CM (complete main)
Параметр Endianness формата : Big
Идентификатор кодека : A_AC3
Продолжительность : 2 ч. 3 м.
Вид битрейта : Постоянный
Битрейт : 448 Кбит/сек
Каналы : 6 каналов
Расположение каналов : Front: L C R, Side: L R, LFE
Частота : 48,0 КГц
Частота кадров : 31,250 кадров/сек (1536 spf)
Метод сжатия : С потерями
Размер потока : 396 Мбайт (11%)
Заголовок : AVO (Юрий Живов)
Язык : Russian
Default : Нет
Forced : Нет

Аудио #4
Идентификатор : 5
Формат : AC-3
Формат/Информация : Audio Coding 3
Расширение режима : CM (complete main)
Параметр Endianness формата : Big
Идентификатор кодека : A_AC3
Продолжительность : 2 ч. 3 м.
Вид битрейта : Постоянный
Битрейт : 448 Кбит/сек
Каналы : 6 каналов
Расположение каналов : Front: L C R, Side: L R, LFE
Частота : 48,0 КГц
Частота кадров : 31,250 кадров/сек (1536 spf)
Метод сжатия : С потерями
Размер потока : 396 Мбайт (11%)
Заголовок : AVO (Алексей Киселёв)
Язык : Russian
Default : Нет
Forced : Нет

Аудио #5
Идентификатор : 6
Формат : AC-3
Формат/Информация : Audio Coding 3
Расширение режима : CM (complete main)
Параметр Endianness формата : Big
Идентификатор кодека : A_AC3
Продолжительность : 2 ч. 3 м.
Вид битрейта : Постоянный
Битрейт : 448 Кбит/сек
Каналы : 6 каналов
Расположение каналов : Front: L C R, Side: L R, LFE
Частота : 48,0 КГц
Частота кадров : 31,250 кадров/сек (1536 spf)
Метод сжатия : С потерями
Размер потока : 396 Мбайт (11%)
Заголовок : Original
Язык : English
Default : Нет
Forced : Нет

Текст #1
Идентификатор : 7
Формат : UTF-8
Идентификатор кодека : S_TEXT/UTF8
Идентификатор кодека/Информация : UTF-8 Plain Text
Продолжительность : 1 ч. 58 м.
Битрейт : 84 бит/сек
Count of elements : 1121
Размер потока : 72,8 Кбайт (0%)
Заголовок : русский
Язык : Russian
Default : Нет
Forced : Нет

Текст #2
Идентификатор : 8
Формат : UTF-8
Идентификатор кодека : S_TEXT/UTF8
Идентификатор кодека/Информация : UTF-8 Plain Text
Продолжительность : 2 ч. 2 м.
Битрейт : 52 бит/сек
Count of elements : 1343
Размер потока : 47,3 Кбайт (0%)
Заголовок : английский
Default : Нет
Forced : Нет
pb.wtf



Скачать Мексиканец через торрент http://s018.radikal.ru/i502/1601/9d/6926bc0be1c1.png Скачать фильм Мексиканец через торрент бесплантно в хорошем качестве Описание: Мелкий гангстер Джерри Уэлбах получает в один день сразу два ультиматума. Его босс, главарь банды, требует, чтобы Джерри срочно ... 10 10 2
Info! Золотая раздача, скачанное не засчитывается.
Торрент: Зарегистрирован [2016-01-22 13:56] · скачан: 57 раз
Статус: √ проверено
Размер: 3.63 GB
Как cкачать? Как скачать Мексиканец через торрент | UTorrent

% Раздел Тема Автор DL S | L
Фильмы [HD 720p, 1080p] (Хороший звук DUB, MVO) [ 5.38 GB ] Мексиканец / The Mexican [2001 BDRip 720p by msltel] DUB MVO 2 x AVO msltel Скачать
1 | 0
Фильмы [HD 720p, 1080p] (Хороший звук DUB, MVO) [ 16.66 GB ] Мексиканец / The Mexican [2001 BDRip 1080p by msltel] DUB MVO 2 x AVO msltel Скачать
1 | 0

28-11-2019 20:33  

Отключить всю рекламу на сайте

22-01-2016 16:58 Мексиканец Скачать торрент  

Кто смотрел отпишитесь!pb.wtf



22-01-2016 18:52 Мексиканец Скачать торрент  

unclear nick писал(а):

Кто смотрел отпишитесь!

Качай, не сомневайся, классный фильм!pb.wtf



23-01-2016 17:06 Мексиканец Скачать торрент  

unclear nick писал(а):

Кто смотрел отпишитесь!

Фильм 2001 года! Все, кто смотрел уже умерли от старости!
А так да, фильм отличный!pb.wtf



    Дорогой пользователь! Огромная просьба, поблагодарите релизера, оцените раздачу и оставьте свои комментарий, если Вы скачали Мексиканец через торрент бесплатно! Внесите свою лепту в развитие PiratBit!
    Комментировать посты могут только пользователи прошедшие не сложную регистрацию
    Показать сообщения:    

    Мексиканец через торрент
    Скачать бесплатно Мексиканец
    Мексиканец скачать торрент
    Мексиканец смотреть онлайн
    Cкачать фильм Мексиканец бесплатно
    Мексиканец скачать торрент в хорошем качестве
    Мексиканец смотреть онлайн бесплатно в хорошем качестве


    Вы не можете начинать темы
    Вы не можете отвечать на сообщения
    Вы не можете редактировать свои сообщения
    Вы не можете удалять свои сообщения
    Вы не можете голосовать в опросах
    Вы не можете прикреплять файлы к сообщениям
    Вы можете скачивать файлы