Marvel's Avengers Deluxe Edition (супер цена) 159р. Внимание количество ограничено!!!

2 сезон

iTunes

iTunes

1

iTunes

iTunes

iTunes

WEBRip

iTunes

30
pack

Новость дня

ВАЖНО

!!Акция!!

Alien_RageХит недели

RePack

Horizon Zero Dawn

ИГРА 18+

pack

RePack

jed

!!Акция!!

Alien_Rage

RePack

fifa19

RePack

Assassins Creed: Odyssey

RePack

NEED FOR SPEED™ PAYBACK

4 сезон

9 сезон

Бесстыжие 9 сезон

Все сериалы

все сериалы на PB.wtf

RePack

FAR CRY 5
  

Последний охотник на ведьм / The Last Witch Hunter (Брек Эйснер / Breck Eisner) [2015, США, Китай, Канада, фэнтези, боевик, приключения, BDRip-AVC от sokol_ok] DUB Лицензия pb.wtf

Последний охотник на ведьм через торрент pb.wtf

Раздают: 1 [ 0 KB/s ]
Размер: 1.46 GB | Добавлен: 4 года 7 мес. назад | Торрент скачан:290 раз
Скачать  

22-01-2016 15:05 Последний охотник на ведьм Скачать торрент  

Последний охотник на ведьм
The Last Witch Hunter

«Вечно жить. Вечно убивать»


Страна: США, Китай, Канада
Жанр: фэнтези, боевик, приключения

Год выпуска: 2015
Продолжительность: 01:46:34

Перевод: Профессиональный (полное дублирование) [Лицензия Blu-ray RUS]
Субтитры: английские (Full, SDH, SDH Colored)
Оригинальная аудиодорожка: нет

Режиссер: Брек Эйснер / Breck Eisner

В ролях: Вин Дизель, Роуз Лесли, Элайджа Вуд, Оулавюр Дарри Оулафссон, Рина Оуэн, Юли Энгельбрехт, Майкл Кейн, Джозеф Гилган, Исаак Де Банколе, Майкл Халсли, Слоун Кумбс, Лотта Вербек

Описание:
Современный мир скрывает множество секретов, но самым удивительным из них является то, что ведьмы до сих пор живут среди нас. Это злобные сверхъестественные существа, чья цель - наслать на мир смертоносную чуму. Армии охотников на ведьм сражались с ними на протяжении многих веков.
В наши дни остался всего лишь один охотник на ведьм, Колдер, которому однажды удалось убить всемогущую королеву ведьм. Но Колдер еще не знает, что королева воскресла и жаждет отомстить своему убийце... Релиз:

Автор рипа: Stalker oK

Сэмпл

Качество видео: BDRip-AVC [HDCLUB / Blu-ray Remux / 1080p]
Формат видео: MKV
Видео кодек: AVC
Аудио кодек: AC3
Видео: 1509 Кбит/сек, 924x384 (2.40:1), 23,976 кадр/сек, AVC
Аудио: русский, 448 Кбит/сек, 48 КГц, 16 бит, 5.1, AC3
Навигация по главам: есть

Общее
Уникальный идентификатор : 210529876406577656596050346244467493006 (0x9E62944E0CF21D66BA247F7D8112888E)
Полное имя : M:\Rips3\The Last Witch Hunter\1\The.Last.Witch.Hunter.2015.BDRip-AVC.Dub.1.45Gb.stalkerok.new-team.mkv
Формат : Matroska
Версия формата : Version 4 / Version 2
Размер файла : 1,46 Гбайт
Продолжительность : 1 ч. 46 м.
Общий поток : 1958 Кбит/сек
Название фильма : The Last Witch Hunter (2015) (New-Team) (Rip by Stalker oK)
Дата кодирования : UTC 2016-02-03 14:44:48
Программа кодирования : mkvmerge v8.6.1 ('Flying') 64bit
Библиотека кодирования : libebml v1.3.3 + libmatroska v1.4.4

Видео
Идентификатор : 1
Формат : AVC
Формат/Информация : Advanced Video Codec
Профиль формата : High@L4.1
Параметр CABAC формата : Да
Параметр ReFrames формата : 14 кадров
Идентификатор кодека : V_MPEG4/ISO/AVC
Продолжительность : 1 ч. 46 м.
Битрейт : 1509 Кбит/сек
Ширина : 924 пикселя
Высота : 384 пикселя
Соотношение сторон : 2,40:1
Режим частоты кадров : Постоянный
Частота кадров : 23,976 (24000/1001) кадра/сек
Цветовое пространство : YUV
Субдискретизация насыщенности : 4:2:0
Битовая глубина : 8 бит
Тип развёртки : Прогрессивная
Бит/(Пиксели*Кадры) : 0.177
Размер потока : 1,12 Гбайт (77%)
Заголовок : The Last Witch Hunter (2015) (New-Team) (Rip by Stalker oK)
Библиотека кодирования : x264 core 148 r2665kMod a01e339
Настройки программы : cabac=1 / ref=14 / deblock=1:-3:-3 / analyse=0x3:0x133 / me=umh / subme=11 / psy=1 / fade_compensate=0.00 / psy_rd=1.00:0.10 / mixed_ref=1 / me_range=48 / chroma_me=1 / trellis=2 / 8x8dct=1 / cqm=0 / deadzone=21,11 / fast_pskip=0 / chroma_qp_offset=-3 / threads=12 / lookahead_threads=3 / sliced_threads=0 / nr=0 / decimate=0 / interlaced=0 / bluray_compat=0 / constrained_intra=0 / fgo=0 / bframes=15 / b_pyramid=2 / b_adapt=2 / b_bias=0 / direct=3 / weightb=1 / open_gop=0 / weightp=2 / keyint=240 / keyint_min=23 / scenecut=40 / intra_refresh=0 / rc_lookahead=60 / rc=2pass / mbtree=0 / bitrate=1509 / ratetol=1.0 / qcomp=0.70 / qpmin=0 / qpmax=69 / qpstep=4 / cplxblur=20.0 / qblur=0.5 / vbv_maxrate=50000 / vbv_bufsize=62500 / nal_hrd=none / filler=0 / ip_ratio=1.40 / pb_ratio=1.30 / aq=3:0.90
Default : Да
Forced : Нет

Аудио
Идентификатор : 2
Формат : AC-3
Формат/Информация : Audio Coding 3
Расширение режима : CM (complete main)
Параметр Endianness формата : Big
Идентификатор кодека : A_AC3
Продолжительность : 1 ч. 46 м.
Вид битрейта : Постоянный
Битрейт : 448 Кбит/сек
Каналы : 6 каналов
Расположение каналов : Front: L C R, Side: L R, LFE
Частота : 48,0 КГц
Частота кадров : 31,250 кадров/сек (1536 spf)
Метод сжатия : С потерями
Размер потока : 341 Мбайт (23%)
Язык : Russian
Default : Да
Forced : Нет

Текст #1
Идентификатор : 3
Формат : UTF-8
Идентификатор кодека : S_TEXT/UTF8
Идентификатор кодека/Информация : UTF-8 Plain Text
Продолжительность : 1 ч. 35 м.
Битрейт : 39 бит/сек
Count of elements : 1053
Размер потока : 27,8 Кбайт (0%)
Язык : English
Default : Нет
Forced : Нет

Текст #2
Идентификатор : 4
Формат : UTF-8
Идентификатор кодека : S_TEXT/UTF8
Идентификатор кодека/Информация : UTF-8 Plain Text
Продолжительность : 1 ч. 37 м.
Битрейт : 45 бит/сек
Count of elements : 1250
Размер потока : 32,4 Кбайт (0%)
Заголовок : SDH
Язык : English
Default : Нет
Forced : Нет

Текст #3
Идентификатор : 5
Формат : UTF-8
Идентификатор кодека : S_TEXT/UTF8
Идентификатор кодека/Информация : UTF-8 Plain Text
Продолжительность : 1 ч. 37 м.
Битрейт : 59 бит/сек
Count of elements : 1251
Размер потока : 42,3 Кбайт (0%)
Заголовок : SDH Colored
Язык : English
Default : Нет
Forced : Нет

Меню
00:00:00.000 : en:Chapter 1
00:08:02.689 : en:Chapter 2
00:16:26.235 : en:Chapter 3
00:25:18.516 : en:Chapter 4
00:31:01.276 : en:Chapter 5
00:36:48.246 : en:Chapter 6
00:43:08.918 : en:Chapter 7
00:47:09.492 : en:Chapter 8
00:54:09.329 : en:Chapter 9
01:00:32.961 : en:Chapter 10
01:08:02.202 : en:Chapter 11
01:14:44.104 : en:Chapter 12
01:21:04.067 : en:Chapter 13
01:29:15.515 : en:Chapter 14
01:32:57.320 : en:Chapter 15
01:37:28.341 : en:Chapter 16
pb.wtf



Скачать Последний охотник на ведьм через торрент http://i72.fastpic.ru/big/2015/0531/46/68ef8a2783b58e5344cc30bbd3f1b046.png Скачать фильм Последний охотник на ведьм через торрент бесплантно в хорошем качестве Описание:Современный мир скрывает множество секретов, но самым удивительным из них является то, что ведьмы до сих пор живут среди нас. Это ... 8.7 10 17
Info! Золотая раздача, скачанное не засчитывается.
Торрент: Зарегистрирован [2016-02-03 14:54] · скачан: 290 раз
Статус: √ проверено
Размер: 1.46 GB
Как cкачать? Как скачать Последний охотник на ведьм через торрент | qTorrent

% Раздел Тема Автор DL S | L
Ultra HD (UHD: 2K, 4K, 8K) — видео сверхвысокой чёткости [ 56.18 GB ] Последний охотник на ведьм / The Last Witch Hunter [2015 UHD BDRemux 2160p] DUB [] + AVO [Дольский] sheker187 Скачать
1 | 0
Ultra HD (UHD: 2K, 4K, 8K) — видео сверхвысокой чёткости [ 49.25 GB ] Последний охотник на ведьм / The Last Witch Hunter [2015 UHD WEBRip 2160p] [USA Transfer] DUB [] bober100 Скачать
1 | 0
Фильмы 2015 [DVDrip, WEB-DLRip, HDrip] [ 2.17 GB ] Последний охотник на ведьм / The Last Witch Hunter [2015 Китай BDRip-AVC от sokol_ok] DUB sokol_ok Скачать
2 | 0
Фильмы 2015 [DVDrip, WEB-DLRip, HDrip] [ 1.41 GB ] Последний охотник на ведьм / The Last Witch Hunter [2015 Китай BDRip] Dub Twi7ter Скачать
3 | 0
Фильмы [HD 720p, 1080p] (Хороший звук DUB, MVO) [ 5.75 GB ] Последний охотник на ведьм / The Last Witch Hunter [2015 BDRip 720p] DUB AVO [А.Дольский] potroks Скачать
1 | 0
Фильмы 2015 [DVDrip, WEB-DLRip, HDrip] [ 1.46 GB ] Последний охотник на ведьм / The Last Witch Hunter [2015 BDRip-AVC] DUB potroks Скачать
1 | 0
Фильмы 2015 [DVDrip, WEB-DLRip, HDrip] [ 2.18 GB ] Последний охотник на ведьм / The Last Witch Hunter [2015 BDRip-AVC] DUB potroks Скачать
1 | 0


Последний раз редактировалось: sokol_ok (2016-02-03 14:54), всего редактировалось 1 раз

28-11-2019 20:33  

Отключить всю рекламу на сайте

23-01-2016 14:47 Последний охотник на ведьм Скачать торрент  

"где то я уже это видел" на один раз, хотя подача материала хорошая, смотрится легко.pb.wtf



23-01-2016 20:13 Последний охотник на ведьм Скачать торрент  

Порой скучноват....на разок.pb.wtf



24-01-2016 19:14 Последний охотник на ведьм Скачать торрент  

стоит смотреть?)pb.wtf



03-02-2016 08:34 Последний охотник на ведьм Скачать торрент  

нормальный фильм , под пивко было не скучноpb.wtf



03-02-2016 14:54 Последний охотник на ведьм Скачать торрент  

Торрент файл перезалит. Лицензия iTunes заменена на лицензию Blu-ray RUS.pb.wtf



    Дорогой пользователь! Огромная просьба, поблагодарите релизера, оцените раздачу и оставьте свои комментарий, если Вы скачали Последний охотник на ведьм через торрент бесплатно! Внесите свою лепту в развитие PiratBit!
    Комментировать посты могут только пользователи прошедшие не сложную регистрацию
    Показать сообщения:    

    Последний охотник на ведьм через торрент
    Скачать бесплатно Последний охотник на ведьм
    Последний охотник на ведьм скачать торрент
    Последний охотник на ведьм смотреть онлайн
    Cкачать фильм Последний охотник на ведьм бесплатно
    Последний охотник на ведьм скачать торрент в хорошем качестве
    Последний охотник на ведьм смотреть онлайн бесплатно в хорошем качестве


    Вы не можете начинать темы
    Вы не можете отвечать на сообщения
    Вы не можете редактировать свои сообщения
    Вы не можете удалять свои сообщения
    Вы не можете голосовать в опросах
    Вы не можете прикреплять файлы к сообщениям
    Вы можете скачивать файлы