Ссылка на приватное зеркало нашего сайта всего за 1$. Внимание количество ограничено!!!

2 сезон

iTunes

1 сезон

1

iTunes

iTunes

iTunes

1 сезон

RePack

30

ИГРА 18+

pack

ВАЖНО

!!Акция!!

Alien_RageХит недели

RePack

MK11
pack

Забери бонус

RePack

jed

!!Акция!!

Alien_Rage

RePack

fifa19

RePack

Assassins Creed: Odyssey

RePack

NEED FOR SPEED™ PAYBACK

4 сезон

9 сезон

Бесстыжие 9 сезон

Все сериалы

все сериалы на PB.wtf

RePack

FAR CRY 5
  

Маленькая мисс Счастье / Little Miss Sunshine (Джонатан Дэйтон , Валери Фэрис ) [2006, драма, комедия, приключения, BDRip 1080p от _denis_100 / NNNB] 2xMVO, DVO + Original + Sub (2xRus, Eng) pb.wtf

Маленькая мисс Счастье через торрент pb.wtf

Размер: 11.37 GB | Добавлен: 4 года 9 мес. назад | Торрент скачан:108 раз
Скачать  

22-01-2016 16:06 Маленькая мисс Счастье Скачать торрент  

Маленькая мисс Счастье / Little Miss Sunshine
«Where's Olive?»


Год выпуска: 2006
Страна: США
Жанр: драма, комедия, приключения
Продолжительность: 01:42:34
Перевод: Профессиональный многоголосый, Профессиональный двухголосый
Субтитры: русские (Forced), русские, английские
Режиссер: Джонатан Дэйтон , Валери Фэрис
В ролях: Эбигейл Бреслин , Грег Киннер , Тони Коллетт , Пол Дано , Стив Карелл , Алан Аркин , Брайан Крэнстон , Гордон Томсон , Дин Норрис , Хулио Оскар Мечосо , Марк Тёртлтауб , Джилл Тэлли
Описание:
Олив - маленькая девочка, мечтающая победить на конкурсе «Маленькая мисс Счастье». Ее семья тоже хочет, чтобы мечта Олив осуществилась, но они столь обременены своими собственными причудами, неврозами, и проблемами, что едва могут ей помочь.
Отец Олив, Ричард, почти не общается с дочерью, а лишь поддерживает отношения с ее матерью. Ее дядя Фрэнк, известный ученый, пытался покончить жизнь самоубийством после неудачного романа с аспирантом-мужчиной. Ее брат Двэйн, фанатический последователь Ницше, принял обет молчания, что еще больше отдалило его от семьи. Дедушка Олив хоть и наркоман, но он единственный человек в семье, кто готов помочь Олив подготовиться к конкурсу.
И все сойдется к тому, что вся семья соберется вместе и отправится в далекую Калифорнию, чтобы Олив смогла участвовать в конкурсе «Маленькая мисс Счастье».


- Премия «Оскар» за Лучшую мужскую роль второго плана (Алан Аркин) и Лучший оригинальный сценарий, 2007г.

Качество: BDRip 1080p
Контейнер (Расширение): MKV
Видео кодек: AVC
Аудио кодек: AC3
Видео: 1916x798, 14145 Кбит/сек, 23,976 кадр/сек, 0,386 Бит/[Пиксели*Кадры]
Аудио №1: русский / AC3 / 5.1 / 48 kHz / 448 kbps / 16 bit |Профессиональный многоголосый, BD CEE|
Аудио №2: русский / AC3 / 5.1 / 48 kHz / 448 kbps / 16 bit |Профессиональный двухголосый, Superbit|
Аудио №3: русский / AC3 / 2.0 / 48 kHz / 192 kbps / 16 bit |Профессиональный многоголосый, Первый канал|
Аудио №4: английский / AC3 / 5.1 / 48 kHz / 640 kbps / 16 bit
Навигация по главам(Чаптеры): естьАвтор рипа: Сообщество:

Код:

Format                                   : Matroska
Format version                           : Version 2
File size                                : 11.4 GiB
Duration                                 : 1h 42mn
Overall bit rate                         : 15.9 Mbps
Movie name                               : Little Miss Sunshine.(2006).BDRip.1080p.[denis100]
Encoded date                             : UTC 2016-01-22 15:18:12
Writing application                      : mkvmerge v5.8.0 ('No Sleep / Pillow') built on Sep  2 2012 15:37:04
Writing library                          : libebml v1.2.3 + libmatroska v1.3.0

Video
ID                                       : 1
Format                                   : AVC
Format/Info                              : Advanced Video Codec
Format profile                           : High@L4.1
Format settings, CABAC                   : Yes
Format settings, ReFrames                : 5 frames
Codec ID                                 : V_MPEG4/ISO/AVC
Duration                                 : 1h 42mn
Bit rate                                 : 14.1 Mbps
Width                                    : 1 916 pixels
Height                                   : 798 pixels
Display aspect ratio                     : 2.40:1
Frame rate                               : 23.976 fps
Color space                              : YUV
Chroma subsampling                       : 4:2:0
Bit depth                                : 8 bits
Scan type                                : Progressive
Bits/(Pixel*Frame)                       : 0.386
Stream size                              : 9.90 GiB (87%)
Title                                    : Little Miss Sunshine.(2006).BDRip.1080p.[denis100]
Writing library                          : x264 core 148 r2638 7599210
Encoding settings                        : cabac=1 / ref=5 / deblock=1:-3:-3 / analyse=0x3:0x133 / me=umh / subme=11 / psy=1 / psy_rd=1.00:0.15 / mixed_ref=1 / me_range=48 / chroma_me=1 / trellis=2 / 8x8dct=1 / cqm=0 / deadzone=21,11 / fast_pskip=0 / chroma_qp_offset=-3 / threads=6 / lookahead_threads=1 / sliced_threads=0 / nr=0 / decimate=1 / interlaced=0 / bluray_compat=0 / constrained_intra=0 / bframes=10 / b_pyramid=2 / b_adapt=2 / b_bias=0 / direct=3 / weightb=1 / open_gop=0 / weightp=2 / keyint=240 / keyint_min=23 / scenecut=40 / intra_refresh=0 / rc=2pass / mbtree=0 / bitrate=14145 / ratetol=1.0 / qcomp=0.60 / qpmin=0 / qpmax=69 / qpstep=4 / cplxblur=20.0 / qblur=0.5 / ip_ratio=1.40 / pb_ratio=1.30 / aq=1:0.80
Language                                 : English
Default                                  : Yes
Forced                                   : No

Audio #1
ID                                       : 2
Format                                   : AC-3
Format/Info                              : Audio Coding 3
Mode extension                           : CM (complete main)
Codec ID                                 : A_AC3
Duration                                 : 1h 42mn
Bit rate mode                            : Constant
Bit rate                                 : 448 Kbps
Channel(s)                               : 6 channels
Channel positions                        : Front: L C R, Side: L R, LFE
Sampling rate                            : 48.0 KHz
Bit depth                                : 16 bits
Compression mode                         : Lossy
Stream size                              : 329 MiB (3%)
Title                                    : MVO, BD CEE
Language                                 : Russian
Default                                  : Yes
Forced                                   : No

Audio #2
ID                                       : 3
Format                                   : AC-3
Format/Info                              : Audio Coding 3
Mode extension                           : CM (complete main)
Codec ID                                 : A_AC3
Duration                                 : 1h 42mn
Bit rate mode                            : Constant
Bit rate                                 : 448 Kbps
Channel(s)                               : 6 channels
Channel positions                        : Front: L C R, Side: L R, LFE
Sampling rate                            : 48.0 KHz
Bit depth                                : 16 bits
Compression mode                         : Lossy
Stream size                              : 329 MiB (3%)
Title                                    : DVO, Superbit
Language                                 : Russian
Default                                  : No
Forced                                   : No

Audio #3
ID                                       : 4
Format                                   : AC-3
Format/Info                              : Audio Coding 3
Mode extension                           : CM (complete main)
Codec ID                                 : A_AC3
Duration                                 : 1h 42mn
Bit rate mode                            : Constant
Bit rate                                 : 192 Kbps
Channel(s)                               : 2 channels
Channel positions                        : Front: L R
Sampling rate                            : 48.0 KHz
Bit depth                                : 16 bits
Compression mode                         : Lossy
Stream size                              : 141 MiB (1%)
Title                                    : MVO, Первый канал
Language                                 : Russian
Default                                  : No
Forced                                   : No

Audio #4
ID                                       : 5
Format                                   : AC-3
Format/Info                              : Audio Coding 3
Mode extension                           : CM (complete main)
Codec ID                                 : A_AC3
Duration                                 : 1h 42mn
Bit rate mode                            : Constant
Bit rate                                 : 640 Kbps
Channel(s)                               : 6 channels
Channel positions                        : Front: L C R, Side: L R, LFE
Sampling rate                            : 48.0 KHz
Bit depth                                : 16 bits
Compression mode                         : Lossy
Stream size                              : 470 MiB (4%)
Language                                 : English
Default                                  : No
Forced                                   : No

Text #1
ID                                       : 6
Format                                   : UTF-8
Codec ID                                 : S_TEXT/UTF8
Codec ID/Info                            : UTF-8 Plain Text
Title                                    : Forced
Language                                 : Russian
Default                                  : No
Forced                                   : No

Text #2
ID                                       : 7
Format                                   : UTF-8
Codec ID                                 : S_TEXT/UTF8
Codec ID/Info                            : UTF-8 Plain Text
Language                                 : Russian
Default                                  : No
Forced                                   : No

Text #3
ID                                       : 8
Format                                   : UTF-8
Codec ID                                 : S_TEXT/UTF8
Codec ID/Info                            : UTF-8 Plain Text
Language                                 : English
Default                                  : No
Forced                                   : No

Menu
00:00:00.000                             : en:The Hoovers Plus One
00:05:27.410                             : en:Homecoming
00:09:06.838                             : en:A Nice Family Dinner
00:16:18.227                             : en:Winner!
00:21:55.105                             : en:The Voice of Experience
00:25:27.609                             : en:A la Mode
00:29:03.951                             : en:Damn Clutch
00:33:00.770                             : en:The Refuge of Losers
00:35:23.538                             : en:Gas Station Blues
00:38:57.085                             : en:Guts
00:41:48.131                             : en:Beauty Rest
00:45:56.212                             : en:Nine Steps Back
00:50:47.711                             : en:A Long Life
00:55:59.273                             : en:Never Give Up
01:00:16.238                             : en:Pretending to Be Normal
01:05:33.596                             : en:End of a Dream
01:11:51.599                             : en:Four Minutes Late
01:16:46.310                             : en:Final Touch-Ups
01:19:21.006                             : en:Our Lovely Contestants
01:22:54.261                             : en:Prime Suffering Years
01:24:57.134                             : en:Talent Galore
01:29:39.332                             : en:Kicking Ass
01:34:55.440                             : en:Incredible
01:37:18.750                             : en:End Titles

pb.wtf



Скачать Маленькая мисс Счастье через торрент http://i74.fastpic.ru/big/2016/0122/3d/1dfcd93a53283857b68901b3679d233d.png Скачать фильм Маленькая мисс Счастье через торрент бесплантно в хорошем качестве Описание:Олив - маленькая девочка, мечтающая победить на конкурсе «Маленькая мисс Счастье». Ее семья тоже хочет, чтобы мечта Олив ... 1 10 1
Info! Золотая раздача, скачанное не засчитывается.
Торрент: Зарегистрирован [2016-01-22 16:06] · скачан: 108 раз
Статус: √ проверено
Размер: 11.37 GB
Как cкачать? Как скачать Маленькая мисс Счастье через торрент | qTorrent

% Раздел Тема Автор DL S | L
Фильмы 2006-2008 [ 2.18 GB ] Маленькая мисс Счастье / Little Miss Sunshine [2006 BDRip от HELLYWOOD] ~Relizer~ Скачать
1 | 0
Фильмы 2006-2008 [ 2.18 GB ] Маленькая мисс Счастье / Little Miss Sunshine [2006 BDRip] m9sо Скачать
1 | 0

28-11-2019 20:33  

Отключить всю рекламу на сайте

    Дорогой пользователь! Огромная просьба, поблагодарите релизера, оцените раздачу и оставьте свои комментарий, если Вы скачали Маленькая мисс Счастье через торрент бесплатно! Внесите свою лепту в развитие PiratBit!
    Комментировать посты могут только пользователи прошедшие не сложную регистрацию
    Показать сообщения:    

    Маленькая мисс Счастье через торрент
    Скачать бесплатно Маленькая мисс Счастье
    Маленькая мисс Счастье скачать торрент
    Маленькая мисс Счастье смотреть онлайн
    Cкачать фильм Маленькая мисс Счастье бесплатно
    Маленькая мисс Счастье скачать торрент в хорошем качестве
    Маленькая мисс Счастье смотреть онлайн бесплатно в хорошем качестве


    Вы не можете начинать темы
    Вы не можете отвечать на сообщения
    Вы не можете редактировать свои сообщения
    Вы не можете удалять свои сообщения
    Вы не можете голосовать в опросах
    Вы не можете прикреплять файлы к сообщениям
    Вы можете скачивать файлы