Ссылка на приватное зеркало всего за 1$. Внимание количество ограничено!!!

OK

1+1

iTunes

мы

OK

1

WEB-DLRip

Джокер

Пифагор

Ведьмак / The Witcher сериал

Лицензия

ПШазам

ОК

Оно 2

iTunes

30
pack

Вам бонус

ВАЖНО

!!Акция!!

Alien_RageХит недели

RePack

Resident Evil 21

ИГРА 18+

pack

RePack

jed

!!Акция!!

Alien_Rage

RePack

fifa19

RePack

Assassins Creed: Odyssey

RePack

NEED FOR SPEED™ PAYBACK

4 сезон

9 сезон

Бесстыжие 9 сезон

Все сериалы

все сериалы на PB.wtf

RePack

FAR CRY 5
  

Крепость: щитом и мечом (Федор Дмитриев) [2015, мультфильм, приключения, военный, BDRip-AVC, - [Лицензия BD RUS] R.G.Resident pb.wtf

Крепость: щитом и мечом через торрент pb.wtf

Размер: 1.16 GB | Добавлен: 3 года 11 мес. назад | Торрент скачан:315 раз
Скачать  

22-01-2016 17:32 Крепость: щитом и мечом Скачать торрент  

Крепость: щитом и мечом
««Щитом и мечом»»

Год выпуска: 2015
Страна: Россия
Жанр: мультфильм, приключения, военный, семейный
Продолжительность: 01:16:53
Перевод: Не требуется - [Лицензия BD RUS]
Режиссер: Федор Дмитриев
В ролях:

Пётр Фёдоров (Шеин, озвучка), Евгений Стычкин (король Сигизмунд, озвучка), Елена Шульман (Сашка, озвучка), Екатерина Гороховская (Федор, озвучка), Вадим Никитин (дед, озвучка), Олег Куликович (дьяк, озвучка), Сергей Русскин (кардинал, озвучка), Михаил Хрусталев (Николай, озвучка), Анатолий Петров (гетман, озвучка)
Описание:
1609 год. Идет война. Польско-литовские войска взяли в осаду Смоленск, но русский гарнизон во главе с воеводой Михаилом Шеиным готов держать оборону до конца. Смоленск - главная крепость на пути захватчиков к Москве, и его нельзя сдавать без боя. Об этом знают даже дети.
Мальчик Сашка лепит самодельные бомбы из теста и колдует в защиту города - вызывает на помощь Царя с Огненным щитом и Пламенным копьем. Пока волшебный царь не пришел, Сашка и его друг Федор просятся в помощники к воеводе. Им предстоит разрушить коварные планы польского короля Сигизмунда Третьего и справиться с нечистой силой, что по ночам бродит по осажденной крепости.

Качество: BDRip-AVC Rip by schultz R.G.Resident
Формат: MKV
Видео: AVC, 1024x428 (2.40:1), 1713 kbps, 24 fps, 0,163 bpp
Аудио: AC3 / 5.1 / 48 kHz / 448 kbps / 16 bit

Код:

Общее
Уникальный идентификатор                 : 245996748091022495373868415923264992358 (0xB91140161690D43CBD9E38C80994B466)
Полное имя                               : D:\download\KREPOST.2015.BDRip-AVC by schultz R.G.Resident (1).mkv
Формат                                   : Matroska
Версия формата                           : Version 4 / Version 2
Размер файла                             : 1,16 Гбайт
Продолжительность                        : 1 ч. 16 м.
Общий поток                              : 2159 Кбит/сек
Дата кодирования                         : UTC 2016-01-22 14:40:14
Программа кодирования                    : mkvmerge v6.7.0 ('Back to the Ground') 64bit built on Jan  8 2014 15:10:52
Библиотека кодирования                   : libebml v1.3.0 + libmatroska v1.4.1

Видео
Идентификатор                            : 1
Формат                                   : AVC
Формат/Информация                        : Advanced Video Codec
Профиль формата                          : High@L4.1
Параметр CABAC формата                   : Да
Параметр ReFrames формата                : 12 кадров
Идентификатор кодека                     : V_MPEG4/ISO/AVC
Продолжительность                        : 1 ч. 16 м.
Битрейт                                  : 1713 Кбит/сек
Ширина                                   : 1024 пикселя
Высота                                   : 428 пикселей
Соотношение сторон                       : 2,40:1
Режим частоты кадров                     : Постоянный
Частота кадров                           : 24,000 кадра/сек
Цветовое пространство                    : YUV
Субдискретизация насыщенности            : 4:2:0
Битовая глубина                          : 8 бит
Тип развёртки                            : Прогрессивная
Бит/(Пиксели*Кадры)                      : 0.163
Размер потока                            : 917 Мбайт (77%)
Библиотека кодирования                   : x264 core 146 r2538 121396c
Настройки программы                      : cabac=1 / ref=12 / deblock=1:-3:-3 / analyse=0x3:0x113 / me=umh / subme=11 / psy=1 / psy_rd=1.00:0.00 / mixed_ref=1 / me_range=48 / chroma_me=1 / trellis=2 / 8x8dct=1 / cqm=0 / deadzone=21,11 / fast_pskip=0 / chroma_qp_offset=-2 / threads=12 / lookahead_threads=3 / sliced_threads=0 / nr=0 / decimate=1 / interlaced=0 / bluray_compat=0 / constrained_intra=0 / bframes=13 / b_pyramid=2 / b_adapt=2 / b_bias=0 / direct=3 / weightb=1 / open_gop=0 / weightp=2 / keyint=240 / keyint_min=23 / scenecut=40 / intra_refresh=0 / rc_lookahead=40 / rc=2pass / mbtree=1 / bitrate=1713 / ratetol=1.0 / qcomp=0.60 / qpmin=0 / qpmax=69 / qpstep=4 / cplxblur=20.0 / qblur=0.5 / vbv_maxrate=14000 / vbv_bufsize=14000 / nal_hrd=none / filler=0 / ip_ratio=1.40 / aq=1:1.00
Default                                  : Да
Forced                                   : Нет

Аудио
Идентификатор                            : 2
Формат                                   : AC-3
Формат/Информация                        : Audio Coding 3
Расширение режима                        : CM (complete main)
Параметр Endianness формата              : Big
Идентификатор кодека                     : A_AC3
Продолжительность                        : 1 ч. 16 м.
Вид битрейта                             : Постоянный
Битрейт                                  : 448 Кбит/сек
Каналы                                   : 6 каналов
Расположение каналов                     : Front: L C R, Side: L R, LFE
Частота                                  : 48,0 КГц
Битовая глубина                          : 16 бит
Метод сжатия                             : С потерями
Размер потока                            : 246 Мбайт (21%)
Default                                  : Да
Forced                                   : Нет


pb.wtf



Скачать Крепость: щитом и мечом через торрент http://pic1.kartinco.top/images/10/ejpqs.jpg Скачать фильм Крепость: щитом и мечом через торрент бесплантно в хорошем качестве Описание: 1609 год. Идет война. Польско-литовские войска взяли в осаду Смоленск, но русский гарнизон во главе с воеводой Михаилом Шеиным ... 10 10 9
Info! Золотая раздача, скачанное не засчитывается.
Торрент: Зарегистрирован [2016-01-22 17:32] · скачан: 315 раз
Статус: √ проверено
Размер: 1.16 GB
Как cкачать? Как скачать Крепость: щитом и мечом через торрент | qTorrent

28-11-2019 20:33  

Отключить всю рекламу на сайте

24-01-2016 13:38 Крепость: щитом и мечом Скачать торрент  

надо посмотреть pb.wtf



    Дорогой пользователь! Огромная просьба, поблагодарите релизера, оцените раздачу и оставьте свои комментарий, если Вы скачали Крепость: щитом и мечом через торрент бесплатно! Внесите свою лепту в развитие PiratBit!
    Комментировать посты могут только пользователи прошедшие не сложную регистрацию
    Показать сообщения:    

    Крепость: щитом и мечом через торрент
    Скачать бесплатно Крепость: щитом и мечом
    Крепость: щитом и мечом скачать торрент
    Крепость: щитом и мечом смотреть онлайн
    Cкачать фильм Крепость: щитом и мечом бесплатно
    Крепость: щитом и мечом скачать торрент в хорошем качестве
    Крепость: щитом и мечом смотреть онлайн бесплатно в хорошем качестве


    Вы не можете начинать темы
    Вы не можете отвечать на сообщения
    Вы не можете редактировать свои сообщения
    Вы не можете удалять свои сообщения
    Вы не можете голосовать в опросах
    Вы не можете прикреплять файлы к сообщениям
    Вы можете скачивать файлы