Ссылка на приватное зеркало всего за 1$. Внимание количество ограничено!!!

OK

1+1

iTunes

мы

OK

1

WEB-DLRip

Джокер

Пифагор

Ведьмак / The Witcher сериал

iTunes

ПШазам

ОК

Оно 2

iTunes

30
pack

Вам бонус

ВАЖНО

!!Акция!!

Alien_RageХит недели

RePack

Resident Evil 21

ИГРА 18+

pack

RePack

jed

RePack

fifa19

RePack

Assassins Creed: Odyssey

RePack

NEED FOR SPEED™ PAYBACK

4 сезон

9 сезон

Бесстыжие 9 сезон

Все сериалы

все сериалы на PB.wtf

RePack

FAR CRY 5
  

Последний охотник на ведьм / The Last Witch Hunter (Брек Эйснер / Breck Eisner) [2015, фэнтези, боевик, приключения, BDRip-AVC от potroks] DUB Лицензия pb.wtf

Последний охотник на ведьм через торрент pb.wtf

Размер: 2.18 GB | Добавлен: 3 года 11 мес. назад | Торрент скачан:336 раз
Скачать  

22-01-2016 20:23 Последний охотник на ведьм Скачать торрент  

Последний охотник на ведьм / The Last Witch Hunter
«Вечно жить. Вечно убивать»
Год выпуска: 2015
Страна: США, Китай, Канада / Summit Entertainment...
Жанр: фэнтези, боевик, приключения
Продолжительность: 01:46:34
Перевод: Дубляж [BD RUS]
Субтитры: английские (Full), английские (SDH)
Навигация по главам: есть
Режиссер: Брек Эйснер / Breck Eisner
В ролях:

Вин Дизель (Kaulder), Роуз Лесли (Chloe), Элайджа Вуд (Dolan 37th), Оулавюр Дарри Оулафссон (Belial), Рина Оуэн (Glaeser), Юли Энгельбрехт (Witch Queen), Майкл Кейн (Dolan 36th), Джозеф Гилган (Ellic), Исаак Де Банколе (Max Schlesinger), Майкл Халсли (Grosette), Слоун Кумбс (Elizabeth), Лотта Вербек (Helena)
Описание: Современный мир скрывает множество секретов, но самым удивительным из них является то, что ведьмы до сих пор живут среди нас. Это злобные сверхъестественные существа, чья цель - наслать на мир смертоносную чуму. Армии охотников на ведьм сражались с ними на протяжении многих веков.
В наши дни остался всего лишь один охотник на ведьм, Колдер, которому однажды удалось убить всемогущую королеву ведьм. Но Колдер еще не знает, что королева воскресла и жаждет отомстить своему убийце...

Качество: BDRip-AVC
Формат: MKV
Видео кодек: AVC
Аудио кодек: AC3
Видео: 1056x440 (2.40:1), 2032 kbps, 23,976 fps, 0,182 bit/pixel
Аудио №1: AC3 / 5.1 / 48 kHz / 448 kbps / 16 bit | RUS
Аудио №2: AC3 / 5.1 / 48 kHz / 448 kbps / 16 bit | ENG

Релиз группы:
Автор рипа: potroks

Код:

Общее
Уникальный идентификатор : 240219386029012065104726848234648747210 (0xB4B89225081E6B149E827EA42B1BBCCA)
Полное имя : Posledniy.Ohotnik.na.Ved'm.2015.DUAL.BDRip.x264.-HELLYWOOD.mkv
Формат : Matroska
Версия формата : Version 4 / Version 2
Размер файла : 2,18 Гбайт
Продолжительность : 1 ч. 46 м.
Общий поток : 2929 Кбит/сек
Название фильма : The Last Witch Hunter (2015) - HELLYWOOD
Дата кодирования : UTC 2016-02-03 21:09:18
Программа кодирования : mkvmerge v5.9.0 ('On The Loose') built on Dec 15 2012 16:39:58
Библиотека кодирования : libebml v1.3.0 + libmatroska v1.4.0

Видео
Идентификатор : 1
Формат : AVC
Формат/Информация : Advanced Video Codec
Профиль формата : High@L4.1
Параметр CABAC формата : Да
Параметр ReFrames формата : 10 кадров
Идентификатор кодека : V_MPEG4/ISO/AVC
Продолжительность : 1 ч. 46 м.
Битрейт : 2032 Кбит/сек
Ширина : 1056 пикселей
Высота : 440 пикселей
Соотношение сторон : 2,40:1
Режим частоты кадров : Постоянный
Частота кадров : 23,976 кадра/сек
Цветовое пространство : YUV
Субдискретизация насыщенности : 4:2:0
Битовая глубина : 8 бит
Тип развёртки : Прогрессивная
Бит/(Пиксели*Кадры) : 0.182
Размер потока : 1,47 Гбайт (67%)
Заголовок : potroks
Библиотека кодирования : x264 core 148 r2665M a01e339
Настройки программы : cabac=1 / ref=10 / deblock=1:-2:-2 / analyse=0x3:0x133 / me=umh / subme=11 / psy=1 / psy_rd=1.00:0.10 / mixed_ref=1 / me_range=48 / chroma_me=1 / trellis=2 / 8x8dct=1 / cqm=0 / deadzone=21,11 / fast_pskip=0 / chroma_qp_offset=-3 / threads=10 / lookahead_threads=2 / sliced_threads=0 / nr=0 / decimate=1 / interlaced=0 / bluray_compat=0 / constrained_intra=0 / bframes=11 / b_pyramid=2 / b_adapt=2 / b_bias=0 / direct=3 / weightb=1 / open_gop=0 / weightp=2 / keyint=240 / keyint_min=23 / scenecut=40 / intra_refresh=0 / rc=2pass / mbtree=0 / bitrate=2032 / ratetol=1.0 / qcomp=0.70 / qpmin=0 / qpmax=69 / qpstep=4 / cplxblur=20.0 / qblur=0.5 / ip_ratio=1.40 / pb_ratio=1.30 / aq=1:0.80
Язык : English
Default : Да
Forced : Нет

Аудио #1
Идентификатор : 2
Формат : AC-3
Формат/Информация : Audio Coding 3
Расширение режима : CM (complete main)
Параметр Endianness формата : Big
Идентификатор кодека : A_AC3
Продолжительность : 1 ч. 46 м.
Вид битрейта : Постоянный
Битрейт : 448 Кбит/сек
Каналы : 6 каналов
Расположение каналов : Front: L C R, Side: L R, LFE
Частота : 48,0 КГц
Метод сжатия : С потерями
Размер потока : 341 Мбайт (15%)
Заголовок : Dub | DD 5.1 @ 448 kbps - Blu-Ray RUS
Язык : Russian
Default : Да
Forced : Нет

Аудио #2
Идентификатор : 3
Формат : AC-3
Формат/Информация : Audio Coding 3
Расширение режима : CM (complete main)
Параметр Endianness формата : Big
Идентификатор кодека : A_AC3
Продолжительность : 1 ч. 46 м.
Вид битрейта : Постоянный
Битрейт : 448 Кбит/сек
Каналы : 6 каналов
Расположение каналов : Front: L C R, Side: L R, LFE
Частота : 48,0 КГц
Метод сжатия : С потерями
Размер потока : 341 Мбайт (15%)
Заголовок : Original | DD 5.1 @ 448 kbps
Язык : English
Default : Нет
Forced : Нет

Текст #1
Идентификатор : 4
Формат : UTF-8
Идентификатор кодека : S_TEXT/UTF8
Идентификатор кодека/Информация : UTF-8 Plain Text
Заголовок : Full
Язык : English
Default : Нет
Forced : Нет

Текст #2
Идентификатор : 5
Формат : UTF-8
Идентификатор кодека : S_TEXT/UTF8
Идентификатор кодека/Информация : UTF-8 Plain Text
Заголовок : SDH
Язык : English
Default : Нет
Forced : Нет

Меню
00:00:00.000 : :(01)00:00:00:000
00:08:02.689 : :(02)00:08:02:689
00:16:26.235 : :(03)00:16:26:235
00:25:18.516 : :(04)00:25:18:516
00:31:01.276 : :(05)00:31:01:276
00:36:48.246 : :(06)00:36:48:246
00:43:08.918 : :(07)00:43:08:918
00:47:09.492 : :(08)00:47:09:492
00:54:09.329 : :(09)00:54:09:329
01:00:32.961 : :(10)01:00:32:961
01:08:02.202 : :(11)01:08:02:202
01:14:44.104 : :(12)01:14:44:104
01:21:04.067 : :(13)01:21:04:067
01:29:15.515 : :(14)01:29:15:515
01:32:57.320 : :(15)01:32:57:320
01:37:28.341 : :(16)01:37:28:341
01:46:34.136 : :(17)01:46:34:136

pb.wtf



Скачать Последний охотник на ведьм через торрент http://i76.fastpic.ru/big/2016/0122/4e/29dbe431bfb5e6f410b002005465704e.png Скачать фильм Последний охотник на ведьм через торрент бесплантно в хорошем качестве Описание: Современный мир скрывает множество секретов, но самым удивительным из них является то, что ведьмы до сих пор живут среди нас. ... 8.5 10 14
Info! Золотая раздача, скачанное не засчитывается.
Торрент: Зарегистрирован [2016-02-03 21:12] · скачан: 336 раз
Статус: √ проверено
Размер: 2.18 GB
Как cкачать? Как скачать Последний охотник на ведьм через торрент | qTorrent

% Раздел Тема Автор DL S | L
Ultra HD (UHD: 2K, 4K, 8K) — видео сверхвысокой чёткости [ 56.18 GB ] Последний охотник на ведьм / The Last Witch Hunter [2015 UHD BDRemux 2160p] DUB [] + AVO [Дольский] sheker187 Скачать
1 | 0
Ultra HD (UHD: 2K, 4K, 8K) — видео сверхвысокой чёткости [ 49.25 GB ] Последний охотник на ведьм / The Last Witch Hunter [2015 UHD WEBRip 2160p] [USA Transfer] DUB [] bober100 Скачать
1 | 0
Фильмы 2015 [DVDrip, WEB-DLRip, HDrip] [ 2.17 GB ] Последний охотник на ведьм / The Last Witch Hunter [2015 Китай BDRip-AVC от sokol_ok] DUB sokol_ok Скачать
4 | 0
Фильмы 2015 [DVDrip, WEB-DLRip, HDrip] [ 1.41 GB ] Последний охотник на ведьм / The Last Witch Hunter [2015 Китай BDRip] Dub Twi7ter Скачать
1 | 0
Фильмы [HD 720p, 1080p] (Хороший звук DUB, MVO) [ 5.75 GB ] Последний охотник на ведьм / The Last Witch Hunter [2015 BDRip 720p] DUB AVO [А.Дольский] potroks Скачать
1 | 0
Фильмы 2015 [DVDrip, WEB-DLRip, HDrip] [ 1.46 GB ] Последний охотник на ведьм / The Last Witch Hunter [2015 BDRip-AVC] DUB potroks Скачать
2 | 0
Фильмы 2015 [DVDrip, WEB-DLRip, HDrip] [ 1.46 GB ] Последний охотник на ведьм / The Last Witch Hunter [2015 Китай BDRip-AVC от sokol_ok] DUB sokol_ok Скачать
2 | 0


Последний раз редактировалось: potroks (2016-02-03 21:12), всего редактировалось 2 раз(а)

28-11-2019 20:33  

Отключить всю рекламу на сайте

23-01-2016 06:29 Последний охотник на ведьм Скачать торрент  

200 человек скачало и не одного комментарияpb.wtf



23-01-2016 06:37 Последний охотник на ведьм Скачать торрент  

komarkurgan писал(а):

200 человек скачало и не одного комментария

качал другую раздачу, но раз интересует мнение, фильм понравился, глянь на досугеpb.wtf



23-01-2016 20:54 Последний охотник на ведьм Скачать торрент  

в начале фильма грим Дизеля улыбнул(не привычно)pb.wtf



24-01-2016 15:11 Последний охотник на ведьм Скачать торрент  

Фильм фуфло, в полном смысле этого слова.pb.wtf



03-02-2016 21:13 Последний охотник на ведьм Скачать торрент  

замена на лицензиюpb.wtf



    Дорогой пользователь! Огромная просьба, поблагодарите релизера, оцените раздачу и оставьте свои комментарий, если Вы скачали Последний охотник на ведьм через торрент бесплатно! Внесите свою лепту в развитие PiratBit!
    Комментировать посты могут только пользователи прошедшие не сложную регистрацию
    Показать сообщения:    

    Последний охотник на ведьм через торрент
    Скачать бесплатно Последний охотник на ведьм
    Последний охотник на ведьм скачать торрент
    Последний охотник на ведьм смотреть онлайн
    Cкачать фильм Последний охотник на ведьм бесплатно
    Последний охотник на ведьм скачать торрент в хорошем качестве
    Последний охотник на ведьм смотреть онлайн бесплатно в хорошем качестве


    Вы не можете начинать темы
    Вы не можете отвечать на сообщения
    Вы не можете редактировать свои сообщения
    Вы не можете удалять свои сообщения
    Вы не можете голосовать в опросах
    Вы не можете прикреплять файлы к сообщениям
    Вы можете скачивать файлы