Ссылка на приватное зеркало нашего сайта всего за 1$. Внимание количество ограничено!!!

2 сезон

iTunes

1 сезон

1

2 сезон

2 сезон

iTunes

1 сезон

RePack

30

Новинка

ВАЖНО

ИГРА 18+

pack

RePack

MK11
pack

Забери бонус

RePack

jed

!!Акция!!

Alien_Rage

RePack

fifa19

RePack

Assassins Creed: Odyssey

RePack

NEED FOR SPEED™ PAYBACK

4 сезон

9 сезон

Бесстыжие 9 сезон

Все сериалы

все сериалы на PB.wtf

RePack

FAR CRY 5
  

Телефонная будка / Таксофон / Phone Booth (Джоэл Шумахер) [2002, Триллер, криминал, детектив, драма, Blu-ray Remux 1080p] от ivandubskoj / D, P, A pb.wtf

Телефонная будка через торрент pb.wtf

Размер: 20.6 GB | Добавлен: 4 года 10 мес. назад | Торрент скачан:20 раз
Скачать  

23-01-2016 10:40 Телефонная будка Скачать торрент  

Информация о фильме
Название: Телефонная будка (Таксофон)
Оригинальное название: Phone Booth
Год выхода: 2002
Жанр: Триллер, криминал, детектив, драма
Выпущено: США, Fox 2000 Pictures, Zucker-Netter Productions
Продолжительность: 01:21:00
Перевод: Дублированный (CPIG), профессиональный многоголосый (2 вида), авторский одноголосый (2 вида: Ю. Сербин, Е. Рудой)
Оригинальная аудио-дорожка: Английская
Субтитры: Русские (2 вида), украинские, английские (полные, SRT)

Режиссёр: Джоэл Шумахер

В ролях: Колин Фаррелл, Кифер Сазерленд, Форест Уитейкер, Рада Митчел, Кэти Холмс, Паула Джей Паркер, Ариан Варинг Эш, Тиа Тексада, Джон Инос III, Ричард Т. Джонс, Keith Nobbs, Dell Yount, Джеймс МакДональд, Джош Пэйс, Йорго Константин, Колин Патрик Линч, Трой Гилберт, Richard Paradise, Сет Уильям Мейер, Светлана Ефремова, Билли Эрб

Описание:

Один телефонный звонок может изменить всю жизнь человека или даже оборвать ее. Герой фильма Стью Шеферд становится пленником телефонной будки. Что вы сделаете, если услышите, как в телефонной будке зазвонил телефон? Скорее всего, инстинктивно поднимете трубку, хотя прекрасно знаете, что кто-то просто ошибся номером. Вот и Стью кажется, что на звонок надо обязательно ответить, а в результате он оказывается втянутым в чудовищную игру. «Только положи трубку, и ты — труп», — говорит ему невидимый собеседник.



Файл
Качество: Blu-ray Remux (1080p) [Исходник: Blu-ray [Custom] 1080p MPEG-2 DTS-HD 5.1 от HDClub]
Контейнер: MKV
Кодек: MPEG-2
Видео: MPEG-2, 1920x1080 (16:9), 24 Мбит/с, 23.976 кадр/с, 0.577 bit/pixel
Аудио #1: Русский, Dolby AC3, 48000 Гц, 384 Кбит/с, 6 каналов (5.1) - DUB [CPIG]
Аудио #2: Русский, Dolby AC3, 48000 Гц, 384 Кбит/с, 6 каналов (5.1) - MVO #1
Аудио #3: Русский, DTS-HD MA, 48000 Гц, 4153 Кбит/с, 6 каналов (5.1) - MVO #2
Аудио #4: Русский, DTS, 48000 Гц, 1510 Кбит/с, 6 каналов (5.1) - AVO [Ю. Сербин]
Аудио #5: Русский, DTS, 48000 Гц, 1510 Кбит/с, 6 каналов (5.1) - AVO [Е. Рудой]
Аудио #6: Английский, DTS-HD MA, 48000 Гц, 4104 Кбит/с, 6 каналов (5.1) - Оригинал

Навигация по главам: Есть (с названиями глав)
General

Unique ID : 211405484973770925913306371370728599423 (0x9F0B3723EBE9B8E5B22BA7EFDF64AF7F)

Complete name : Phone.Booth.2002.BDRemux.1080p.mkv

Format : Matroska

File size : 20.6 GiB

Duration : 1h 21mn

Overall bit rate : 36.4 Mbps

Movie name : Телефонная будка / Phone Booth (2002) Blu-ray Remux (1080p) от ivandubskoj

Encoded date : UTC 2016-01-22 20:45:06

Writing application : mkvmerge v6.1.0 ('Old Devil') built on Mar 4 2013 09:10:42

Writing library : libebml v1.3.0 + libmatroska v1.4.0

Video

ID : 1

Format : MPEG Video

Format version : Version 2

Format profile : Main@High

Format settings, BVOP : No

Format settings, Matrix : Custom

Codec ID : V_MPEG2

Codec ID/Info : MPEG 1 or 2 Video

Duration : 1h 21mn

Bit rate mode : Variable

Bit rate : 24.0 Mbps

Nominal bit rate : 33.0 Mbps

Width : 1 920 pixels

Height : 1 080 pixels

Display aspect ratio : 16:9

Frame rate : 23.976 fps

Color space : YUV

Chroma subsampling : 4:2:0

Bit depth : 8 bits

Compression mode : Lossy

Bits/(Pixel*Frame) : 0.577

Stream size : 16.2 GiB (79%)

Title : Телефонная будка / Phone Booth (2002)

Language : English

Audio #1

ID : 2

Format : AC-3

Format/Info : Audio Coding 3

Mode extension : CM (complete main)

Codec ID : A_AC3

Duration : 1h 21mn

Bit rate mode : Constant

Bit rate : 384 Kbps

Channel(s) : 6 channels

Channel positions : Front: L C R, Side: L R, LFE

Sampling rate : 48.0 KHz

Bit depth : 16 bits

Compression mode : Lossy

Stream size : 222 MiB (1%)

Title : DUB [CPIG]

Language : Russian

Audio #2

ID : 3

Format : AC-3

Format/Info : Audio Coding 3

Mode extension : CM (complete main)

Codec ID : A_AC3

Duration : 1h 21mn

Bit rate mode : Constant

Bit rate : 384 Kbps

Channel(s) : 6 channels

Channel positions : Front: L C R, Side: L R, LFE

Sampling rate : 48.0 KHz

Bit depth : 16 bits

Compression mode : Lossy

Stream size : 222 MiB (1%)

Title : MVO #1

Language : Russian

Audio #3

ID : 4

Format : DTS

Format/Info : Digital Theater Systems

Format profile : MA / Core

Codec ID : A_DTS

Duration : 1h 21mn

Bit rate mode : Variable

Bit rate : 1 642 Kbps / 1 510 Kbps

Channel(s) : 6 channels

Channel positions : Front: L C R, Side: L R, LFE

Sampling rate : 48.0 KHz

Bit depth : 24 bits

Compression mode : Lossless / Lossy

Title : MVO #2

Language : Russian

Audio #4

ID : 5

Format : DTS

Format/Info : Digital Theater Systems

Codec ID : A_DTS

Duration : 1h 21mn

Bit rate mode : Constant

Bit rate : 1 510 Kbps

Channel(s) : 6 channels

Channel positions : Front: L C R, Side: L R, LFE

Sampling rate : 48.0 KHz

Bit depth : 24 bits

Compression mode : Lossy

Stream size : 875 MiB (4%)

Title : AVO [Ю. Сербин]

Language : Russian

Audio #5

ID : 6

Format : DTS

Format/Info : Digital Theater Systems

Codec ID : A_DTS

Duration : 1h 21mn

Bit rate mode : Constant

Bit rate : 1 510 Kbps

Channel(s) : 6 channels

Channel positions : Front: L C R, Side: L R, LFE

Sampling rate : 48.0 KHz

Bit depth : 24 bits

Compression mode : Lossy

Stream size : 875 MiB (4%)

Title : AVO [Е. Рудой]

Language : Russian

Audio #6

ID : 7

Format : DTS

Format/Info : Digital Theater Systems

Format profile : MA / Core

Codec ID : A_DTS

Duration : 1h 21mn

Bit rate mode : Variable

Bit rate : 1 561 Kbps / 1 510 Kbps

Channel(s) : 6 channels

Channel positions : Front: L C R, Side: L R, LFE

Sampling rate : 48.0 KHz

Bit depth : 24 bits

Compression mode : Lossless / Lossy

Title : Original

Language : English

Text #1

ID : 8

Format : UTF-8

Codec ID : S_TEXT/UTF8

Codec ID/Info : UTF-8 Plain Text

Title : Full #1

Language : Russian

Text #2

ID : 9

Format : UTF-8

Codec ID : S_TEXT/UTF8

Codec ID/Info : UTF-8 Plain Text

Title : Full #2

Language : Russian

Text #3

ID : 10

Format : UTF-8

Codec ID : S_TEXT/UTF8

Codec ID/Info : UTF-8 Plain Text

Title : Full

Language : Ukrainian

Text #4

ID : 11

Format : UTF-8

Codec ID : S_TEXT/UTF8

Codec ID/Info : UTF-8 Plain Text

Title : Full

Language : English

Menu

00:00:00.000 : en:The Last Phone Booth

00:03:42.973 : en:The Publicist

00:08:58.455 : en:A Free Pizza

00:10:20.370 : en:Pam

00:11:45.955 : en:The Caller

00:14:05.595 : en:Exposed

00:17:34.387 : en:Kelly

00:21:19.320 : en:Don't Hang Up

00:23:22.359 : en:The Others

00:25:01.417 : en:Leon's Girls

00:29:00.948 : en:Guilty

00:32:00.627 : en:The Cops

00:34:57.762 : en:Captain Ramey

00:39:19.440 : en:The Center of Attention

00:43:10.296 : en:The Cell Phone

00:45:54.502 : en:She's Not My Wife

00:47:50.534 : en:The Perfect Violation

00:51:44.059 : en:Hung Up

00:54:09.621 : en:The Odds Are Even

00:56:35.767 : en:Kelly or Pam?

00:58:09.486 : en:A Sniper Situation

01:00:58.238 : en:Trust Is the Key

01:03:53.204 : en:A Chance for Redemption

01:08:50.418 : en:The Man in 604

01:11:06.095 : en:A Familiar Face

01:12:30.555 : en:You'll Be Hearing From Me

01:14:06.067 : en:A Ringing Phone

01:15:02.456 : en:End Titles
Автор ремукса - ivandubskojpb.wtf



Скачать Телефонная будка через торрент http://i65.fastpic.ru/big/2016/0123/8a/74f306c0637f510cc49a8bf55fd8618a.jpg Скачать фильм Телефонная будка через торрент бесплантно в хорошем качестве Описание:Один телефонный звонок может изменить всю жизнь человека или даже оборвать ее. Герой фильма Стью Шеферд становится пленником ... 9.5 10 4
Info! Золотая раздача, скачанное не засчитывается.
Торрент: Зарегистрирован [2016-01-23 10:40] · скачан: 20 раз
Статус: √ проверено
Размер: 20.6 GB
Как cкачать? Как скачать Телефонная будка через торрент | qTorrent

28-11-2019 20:33  

Отключить всю рекламу на сайте

    Дорогой пользователь! Огромная просьба, поблагодарите релизера, оцените раздачу и оставьте свои комментарий, если Вы скачали Телефонная будка через торрент бесплатно! Внесите свою лепту в развитие PiratBit!
    Комментировать посты могут только пользователи прошедшие не сложную регистрацию
    Показать сообщения:    

    Телефонная будка через торрент
    Скачать бесплатно Телефонная будка
    Телефонная будка скачать торрент
    Телефонная будка смотреть онлайн
    Cкачать фильм Телефонная будка бесплатно
    Телефонная будка скачать торрент в хорошем качестве
    Телефонная будка смотреть онлайн бесплатно в хорошем качестве


    Вы не можете начинать темы
    Вы не можете отвечать на сообщения
    Вы не можете редактировать свои сообщения
    Вы не можете удалять свои сообщения
    Вы не можете голосовать в опросах
    Вы не можете прикреплять файлы к сообщениям
    Вы можете скачивать файлы