Ссылка на приватное зеркало нашего сайта всего за 1$. Внимание количество ограничено!!!

2 сезон

iTunes

1 сезон

1

iTunes

iTunes

iTunes

1 сезон

RePack

30

ИГРА 18+

pack

ВАЖНО

!!Акция!!

Alien_RageХит недели

RePack

MK11
pack

Забери бонус

RePack

jed

!!Акция!!

Alien_Rage

RePack

fifa19

RePack

Assassins Creed: Odyssey

RePack

NEED FOR SPEED™ PAYBACK

4 сезон

9 сезон

Бесстыжие 9 сезон

Все сериалы

все сериалы на PB.wtf

RePack

FAR CRY 5
  

Сердце Ангела / Angel Heart (Алан Паркер) [1987, ужасы, триллер, детектив, BDRip 1080p by msltel] DUB, 4 x MVO, DVO, 3 x AVO, VO pb.wtf

Сердце Ангела через торрент pb.wtf

Размер: 15.68 GB | Добавлен: 4 года 8 мес. назад | Торрент скачан:24 раза
Скачать  

23-01-2016 11:03 Сердце Ангела Скачать торрент  

Название: Сердце Ангела
Оригинальное название: Angel Heart
Год выпуска: 1987
Страна: США, Канада, Великобритания
Жанр: ужасы, триллер, детектив
Продолжительность: 01:53:11
Перевод: профессиональный многоголосый, профессиональный двухголосый, авторский, любительский одноголосый

Режиссёр: Алан Паркер

В ролях: Микки Рурк, Роберт Де Ниро, Лиза Боне, Шарлотта Рэмплинг, Стокер Фонтелье, Брауни МакГи, Майкл Хиггинс, Элизабет Уиткрафт, Элиотт Кинер, Чарльз Гордон

Описание: 1955 год. Нью-Йорк. К частному детективу Гарри Эйнджелу обращается некий Луис Сайфер с просьбой разыскать талантливого музыканта Джонни Фэйворита. В 1943 году мистер Сайфер заключил с Джонни один контракт, но Фэйворит, вернувшись с войны, попал в психиатрическую лечебницу, откуда впоследствии исчез, следы его потерялись. Гарри начинает расследование. Однако, чем дальше продвигается он в своих поисках, тем больше загадок встречается на его пути. А обратной дороги нет: каждый, у кого сыщик пытался выведать хоть какие-то сведения о пропавшем Джонни, после разговора с Эйнджелом погибает... Фильм снят по мотивам романа Уильяма Хьортсберга «Падший ангел» (Falling Angel, 1978).



Качество: BDRip 1080p Сравнение с исходником
Формат: MKV
Видео: MPEG-4 AVC, 14 Mбит/с, 1920x1036, 23,976 кадра/с
Аудио 1: русский, AC3, 448 kbps, 6 ch, 48 kHz [дублированный, киностудия им. Горького]
Аудио 2: русский, AC3, 384 kbps, 6 ch, 48 kHz [профессиональный многоголосый, R5]
Аудио 3: русский, DTS, 768 kbps, 6 ch, 48 kHz [профессиональный двухголосый, Пётр Гланц и Инна Королёва]
Аудио 4: русский, DTS, 768 kbps, 6 ch, 48 kHz [авторский, Алексей Михалёв]

Внешние файлы
Аудио: русский, AC3, 384 kbps, 6 ch, 48 kHz [профессиональный многоголосый, Киномания]
Аудио: русский, AC3, 192 kbps, 2 ch, 48 kHz [профессиональный многоголосый, Селена Интернешнл по заказу OPT]
Аудио: русский, AC3, 192 kbps, 2 ch, 48 kHz [профессиональный многоголосый, студия Нота по заказу РТР (VHS)]
Аудио: русский, DTS, 755 kbps, 6 ch, 48 kHz [авторский, Владимир Завгородний, с ненормативной лексикой]
Аудио: русский, DTS, 755 kbps, 6 ch, 48 kHz [авторский, Григорий Либергал]
Аудио: русский, AC3, 448 kbps, 6 ch, 48 kHz [любительский одноголосый, Doctor Joker, с ненормативной лексикой]
Аудио: английский, DTS, 768 kbps, 6 ch, 48 kHz [оригинал]
Субтитры: русские
Субтитры: английские
Общее
Полное имя : D:\Video\Сердце ангела.1987.BDRip.1080p\Сердце ангела.1987.AVO.rus.В.Завгородний,ненорм..dts
Формат : DTS
Формат/Информация : Digital Theater Systems
Размер файла : 611 Мбайт
Продолжительность : 1 ч. 53 м.
Режим общего битрейта : Постоянный
Общий поток : 755 Кбит/сек

Аудио
Формат : DTS
Формат/Информация : Digital Theater Systems
Режим : 16
Параметр Endianness формата : Big
Продолжительность : 1 ч. 53 м.
Вид битрейта : Постоянный
Битрейт : 755 Кбит/сек
Каналы : 6 каналов
Расположение каналов : Front: L C R, Side: L R, LFE
Частота : 48,0 КГц
Частота кадров : 93,750 кадра/сек (512 spf)
Битовая глубина : 24 бит
Метод сжатия : С потерями
Размер потока : 611 Мбайт (100%)

Общее
Полное имя : D:\Video\Сердце ангела.1987.BDRip.1080p\Сердце ангела.1987.AVO.rus.Г.Либергал.dts
Формат : DTS
Формат/Информация : Digital Theater Systems
Размер файла : 611 Мбайт
Продолжительность : 1 ч. 53 м.
Режим общего битрейта : Постоянный
Общий поток : 755 Кбит/сек

Аудио
Формат : DTS
Формат/Информация : Digital Theater Systems
Режим : 16
Параметр Endianness формата : Big
Продолжительность : 1 ч. 53 м.
Вид битрейта : Постоянный
Битрейт : 755 Кбит/сек
Каналы : 6 каналов
Расположение каналов : Front: L C R, Side: L R, LFE
Частота : 48,0 КГц
Частота кадров : 93,750 кадра/сек (512 spf)
Битовая глубина : 24 бит
Метод сжатия : С потерями
Размер потока : 611 Мбайт (100%)

Общее
Уникальный идентификатор : 221664760796879754659717819671642157066 (0xA6C3147DB9A759B4BFBD79ECF5B0B00A)
Полное имя : D:\Video\Сердце ангела.1987.BDRip.1080p\Сердце ангела.1987.BDRip.1080p.mkv
Формат : Matroska
Версия формата : Version 4 / Version 2
Размер файла : 12,9 Гбайт
Продолжительность : 1 ч. 53 м.
Общий поток : 16,3 Мбит/сек
Дата кодирования : UTC 2016-01-23 03:43:45
Программа кодирования : mkvmerge v8.2.0 ('World of Adventure') 64bit
Библиотека кодирования : libebml v1.3.1 + libmatroska v1.4.2

Видео
Идентификатор : 1
Формат : AVC
Формат/Информация : Advanced Video Codec
Профиль формата : High@L4.1
Параметр CABAC формата : Да
Параметр ReFrames формата : 4 кадра
Идентификатор кодека : V_MPEG4/ISO/AVC
Продолжительность : 1 ч. 53 м.
Битрейт : 14,0 Мбит/сек
Ширина : 1920 пикселей
Высота : 1036 пикселей
Соотношение сторон : 1,85:1
Режим частоты кадров : Постоянный
Частота кадров : 23,976 (24000/1001) кадра/сек
Цветовое пространство : YUV
Субдискретизация насыщенности : 4:2:0
Битовая глубина : 8 бит
Тип развёртки : Прогрессивная
Бит/(Пиксели*Кадры) : 0.293
Размер потока : 11,0 Гбайт (85%)
Библиотека кодирования : x264 core 146 r2538 121396c
Настройки программы : cabac=1 / ref=4 / deblock=1:-3:-3 / analyse=0x3:0x113 / me=umh / subme=10 / psy=1 / psy_rd=1.00:0.15 / mixed_ref=1 / me_range=32 / chroma_me=1 / trellis=2 / 8x8dct=1 / cqm=0 / deadzone=21,11 / fast_pskip=1 / chroma_qp_offset=-3 / threads=6 / lookahead_threads=1 / sliced_threads=0 / nr=0 / decimate=1 / interlaced=0 / bluray_compat=0 / constrained_intra=0 / bframes=7 / b_pyramid=2 / b_adapt=2 / b_bias=0 / direct=1 / weightb=1 / open_gop=0 / weightp=2 / keyint=230 / keyint_min=23 / scenecut=40 / intra_refresh=0 / rc_lookahead=40 / rc=crf / mbtree=0 / crf=19.2 / qcomp=0.60 / qpmin=0 / qpmax=69 / qpstep=4 / vbv_maxrate=40000 / vbv_bufsize=50000 / crf_max=0.0 / nal_hrd=none / filler=0 / ip_ratio=1.40 / pb_ratio=1.30 / aq=1:1.00
Язык : English
Default : Да
Forced : Нет

Аудио #1
Идентификатор : 2
Формат : AC-3
Формат/Информация : Audio Coding 3
Расширение режима : CM (complete main)
Параметр Endianness формата : Big
Идентификатор кодека : A_AC3
Продолжительность : 1 ч. 53 м.
Вид битрейта : Постоянный
Битрейт : 448 Кбит/сек
Каналы : 6 каналов
Расположение каналов : Front: L C R, Side: L R, LFE
Частота : 48,0 КГц
Частота кадров : 31,250 кадров/сек (1536 spf)
Метод сжатия : С потерями
Размер потока : 363 Мбайт (3%)
Заголовок : DUB (киностудия им. Горького)
Язык : Russian
Default : Да
Forced : Нет

Аудио #2
Идентификатор : 3
Формат : AC-3
Формат/Информация : Audio Coding 3
Расширение режима : CM (complete main)
Параметр Endianness формата : Big
Идентификатор кодека : A_AC3
Продолжительность : 1 ч. 53 м.
Вид битрейта : Постоянный
Битрейт : 384 Кбит/сек
Каналы : 6 каналов
Расположение каналов : Front: L C R, Side: L R, LFE
Частота : 48,0 КГц
Частота кадров : 31,250 кадров/сек (1536 spf)
Метод сжатия : С потерями
Размер потока : 311 Мбайт (2%)
Заголовок : MVO (R5)
Язык : Russian
Default : Нет
Forced : Нет

Аудио #3
Идентификатор : 4
Формат : DTS
Формат/Информация : Digital Theater Systems
Режим : 16
Параметр Endianness формата : Big
Идентификатор кодека : A_DTS
Продолжительность : 1 ч. 53 м.
Вид битрейта : Постоянный
Битрейт : 768 Кбит/сек
Каналы : 6 каналов
Расположение каналов : Front: L C R, Side: L R, LFE
Частота : 48,0 КГц
Частота кадров : 93,750 кадра/сек (512 spf)
Битовая глубина : 24 бит
Метод сжатия : С потерями
Размер потока : 622 Мбайт (5%)
Заголовок : DVO (Пётр Гланц и Инна Королёва)
Язык : Russian
Default : Нет
Forced : Нет

Аудио #4
Идентификатор : 5
Формат : DTS
Формат/Информация : Digital Theater Systems
Режим : 16
Параметр Endianness формата : Big
Идентификатор кодека : A_DTS
Продолжительность : 1 ч. 53 м.
Вид битрейта : Постоянный
Битрейт : 768 Кбит/сек
Каналы : 6 каналов
Расположение каналов : Front: L C R, Side: L R, LFE
Частота : 48,0 КГц
Частота кадров : 93,750 кадра/сек (512 spf)
Битовая глубина : 24 бит
Метод сжатия : С потерями
Размер потока : 622 Мбайт (5%)
Заголовок : AVO ((Алексей Михалёв)
Язык : Russian
Default : Нет
Forced : Нет

Общее
Полное имя : D:\Video\Сердце ангела.1987.BDRip.1080p\Сердце ангела.1987.eng.srt
Формат : SubRip
Размер файла : 64,8 Кбайт

Текст
Формат : SubRip
Метод сжатия : Без потерь

Общее
Полное имя : D:\Video\Сердце ангела.1987.BDRip.1080p\Сердце ангела.1987.MVO.rus.Киномания.ac3
Формат : AC-3
Формат/Информация : Audio Coding 3
Размер файла : 311 Мбайт
Продолжительность : 1 ч. 53 м.
Режим общего битрейта : Постоянный
Общий поток : 384 Кбит/сек

Аудио
Формат : AC-3
Формат/Информация : Audio Coding 3
Расширение режима : CM (complete main)
Параметр Endianness формата : Big
Продолжительность : 1 ч. 53 м.
Вид битрейта : Постоянный
Битрейт : 384 Кбит/сек
Каналы : 6 каналов
Расположение каналов : Front: L C R, Side: L R, LFE
Частота : 48,0 КГц
Частота кадров : 31,250 кадров/сек (1536 spf)
Метод сжатия : С потерями
Размер потока : 311 Мбайт (100%)

Общее
Полное имя : D:\Video\Сердце ангела.1987.BDRip.1080p\Сердце ангела.1987.MVO.rus.Селена Интернешнл по заказу OPT.ac3
Формат : AC-3
Формат/Информация : Audio Coding 3
Размер файла : 155 Мбайт
Продолжительность : 1 ч. 53 м.
Режим общего битрейта : Постоянный
Общий поток : 192 Кбит/сек

Аудио
Формат : AC-3
Формат/Информация : Audio Coding 3
Расширение режима : CM (complete main)
Параметр Endianness формата : Big
Продолжительность : 1 ч. 53 м.
Вид битрейта : Постоянный
Битрейт : 192 Кбит/сек
Каналы : 2 канала
Расположение каналов : Front: L R
Частота : 48,0 КГц
Частота кадров : 31,250 кадров/сек (1536 spf)
Метод сжатия : С потерями
Размер потока : 155 Мбайт (100%)

Общее
Полное имя : D:\Video\Сердце ангела.1987.BDRip.1080p\Сердце ангела.1987.MVO.rus.студия Нота по заказу РТР ( VHS).ac3
Формат : AC-3
Формат/Информация : Audio Coding 3
Размер файла : 155 Мбайт
Продолжительность : 1 ч. 53 м.
Режим общего битрейта : Постоянный
Общий поток : 192 Кбит/сек

Аудио
Формат : AC-3
Формат/Информация : Audio Coding 3
Расширение режима : CM (complete main)
Параметр Endianness формата : Big
Продолжительность : 1 ч. 53 м.
Вид битрейта : Постоянный
Битрейт : 192 Кбит/сек
Каналы : 2 канала
Расположение каналов : Front: L R
Частота : 48,0 КГц
Частота кадров : 31,250 кадров/сек (1536 spf)
Метод сжатия : С потерями
Размер потока : 155 Мбайт (100%)

Общее
Полное имя : D:\Video\Сердце ангела.1987.BDRip.1080p\Сердце ангела.1987.Original.eng.dts
Формат : DTS
Формат/Информация : Digital Theater Systems
Размер файла : 622 Мбайт
Продолжительность : 1 ч. 53 м.
Режим общего битрейта : Постоянный
Общий поток : 768 Кбит/сек

Аудио
Формат : DTS
Формат/Информация : Digital Theater Systems
Режим : 16
Параметр Endianness формата : Big
Продолжительность : 1 ч. 53 м.
Вид битрейта : Постоянный
Битрейт : 768 Кбит/сек
Каналы : 6 каналов
Расположение каналов : Front: L C R, Side: L R, LFE
Частота : 48,0 КГц
Частота кадров : 93,750 кадра/сек (512 spf)
Битовая глубина : 24 бит
Метод сжатия : С потерями
Размер потока : 622 Мбайт

Общее
Полное имя : D:\Video\Сердце ангела.1987.BDRip.1080p\Сердце ангела.1987.rus.srt
Формат : SubRip
Размер файла : 89,6 Кбайт

Текст
Формат : SubRip
Метод сжатия : Без потерь

Общее
Полное имя : D:\Video\Сердце ангела.1987.BDRip.1080p\Сердце ангела.1987.VO.rus.любительский одноголосый, Doctor Joker, ненорм..ac3
Формат : AC-3
Формат/Информация : Audio Coding 3
Размер файла : 363 Мбайт
Продолжительность : 1 ч. 53 м.
Режим общего битрейта : Постоянный
Общий поток : 448 Кбит/сек

Аудио
Формат : AC-3
Формат/Информация : Audio Coding 3
Расширение режима : CM (complete main)
Параметр Endianness формата : Big
Продолжительность : 1 ч. 53 м.
Вид битрейта : Постоянный
Битрейт : 448 Кбит/сек
Каналы : 6 каналов
Расположение каналов : Front: L C R, Side: L R, LFE
Частота : 48,0 КГц
Частота кадров : 31,250 кадров/сек (1536 spf)
Метод сжатия : С потерями
Размер потока : 363 Мбайт (100%)
pb.wtf



Скачать Сердце Ангела через торрент http://s017.radikal.ru/i431/1601/f7/56ac08c1fbfc.png Скачать фильм Сердце Ангела через торрент бесплантно в хорошем качестве Описание: 1955 год. Нью-Йорк. К частному детективу Гарри Эйнджелу обращается некий Луис Сайфер с просьбой разыскать талантливого музыканта ... 10 10 3
Info! Золотая раздача, скачанное не засчитывается.
Торрент: Зарегистрирован [2016-01-23 11:03] · скачан: 24 раз
Статус: √ проверено
Размер: 15.68 GB
Как cкачать? Как скачать Сердце Ангела через торрент | qTorrent

% Раздел Тема Автор DL S | L
Фильмы [HD 720p, 1080p] (Хороший звук DUB, MVO) [ 7.62 GB ] Сердце Ангела / Angel Heart [1987 BDRip 720p by msltel] DUB 4 x MVO DVO 3 x AVO VO msltel Скачать
1 | 0

28-11-2019 20:33  

Отключить всю рекламу на сайте

    Дорогой пользователь! Огромная просьба, поблагодарите релизера, оцените раздачу и оставьте свои комментарий, если Вы скачали Сердце Ангела через торрент бесплатно! Внесите свою лепту в развитие PiratBit!
    Комментировать посты могут только пользователи прошедшие не сложную регистрацию
    Показать сообщения:    

    Сердце Ангела через торрент
    Скачать бесплатно Сердце Ангела
    Сердце Ангела скачать торрент
    Сердце Ангела смотреть онлайн
    Cкачать фильм Сердце Ангела бесплатно
    Сердце Ангела скачать торрент в хорошем качестве
    Сердце Ангела смотреть онлайн бесплатно в хорошем качестве


    Вы не можете начинать темы
    Вы не можете отвечать на сообщения
    Вы не можете редактировать свои сообщения
    Вы не можете удалять свои сообщения
    Вы не можете голосовать в опросах
    Вы не можете прикреплять файлы к сообщениям
    Вы можете скачивать файлы