Ссылка на приватное зеркало нашего сайта всего за 1$. Внимание количество ограничено!!!

2 сезон

iTunes

1 сезон

1

iTunes

iTunes

iTunes

1 сезон

RePack

30

ИГРА 18+

pack

ВАЖНО

!!Акция!!

Alien_RageХит недели

RePack

MK11
pack

Забери бонус

RePack

jed

!!Акция!!

Alien_Rage

RePack

fifa19

RePack

Assassins Creed: Odyssey

RePack

NEED FOR SPEED™ PAYBACK

4 сезон

9 сезон

Бесстыжие 9 сезон

Все сериалы

все сериалы на PB.wtf

RePack

FAR CRY 5
  

Искусственный разум / Artificial Intelligence: AI (Стивен Спилберг / Steven Spielberg) [2001г., фантастика, драма, приключения, BDRip 720p] Dub, 2 x MVO, 2 x AVO pb.wtf

Искусственный разум через торрент pb.wtf

Размер: 17.42 GB | Добавлен: 4 года 8 мес. назад | Торрент скачан:131 раз
Скачать  

23-01-2016 13:19 Искусственный разум Скачать торрент  

Искусственный разум / Artificial Intelligence: AI««Do not speak the seven-word activation code unless you mean it.»»
Год выпуска: 2001
Страна: США
Жанр: фантастика, драма, приключения
Продолжительность: 02:25:51

  • Перевод: Дубляж;
  • Русские субтитры: есть
  • Оригинальная аудиодорожка: английская

Режиссер: Стивен Спилберг / Steven Spielberg
В ролях: Хэйли Джоэл Осмент (David), Джуд Лоу (Gigolo Joe), Фрэнсис О’Коннор (Monica Swinton), Сэм Робардс (Henry Swinton), Джейк Томас (Martin Swinton), Уильям Хёрт (Prof. Hobby), Кен Люн (Syatyoo-Sama), Кларк Грегг (Supernerd), Кевин Сасмэн (Supernerd), Том Гэллоп (Supernerd), Юджин Осмент (Supernerd), Эйприл Грэйс (Female Colleague)
Описание: В будущем мире вырвавшегося из-под контроля глобального потепления и пугающих достижений науки, смертные живут бок о бок с удивительными и сложными роботами. Но когда продвинутый прототип робота-ребенка по имени Дэвид программируется на проявление бескорыстной любви, члены его человеческой семьи оказываются неготовыми к последствиям такого чувства.
Неожиданно Дэвид оказывается один в странном и опасном мире. С помощью уличного робота Дэвид пускается в поиски загадки своего собственного происхождения.




  • Тип релиза: BDRip 720p
  • Формат: MKV
  • Видео кодек: H264 | Аудио кодек: AC3, DTS
  • Видео: / 9662 Kbps / 1280x720 / 23.976 fps / High Profile 4.1
  • Аудио №1:Russian / AC3 / 5.1 / 48 kHz / 640 kbps / 16 bit |Дубляж|
  • Аудио №2:Russian / DTS / 5.1 / 48 kHz / 1510 kbps / 24 bit |Многоголосый закадровый, Kарусель|
  • Аудио №3:Russian / DTS / 5.1 / 48 kHz / 1510 kbps / 24 bit |Многоголосый закадровый|
  • Аудио №4:Russian / DTS / 5.1 / 48 kHz / 1510 kbps / 24 bit |Одноголосый закадровый, Ю. Живов|
  • Аудио №5:Russian / DTS / 5.1 / 48 kHz / 755 kbps / 24 bit |Одноголосый закадровый, С. Визгунов|
  • Аудио №6:English / DTS / 5.1 / 48 kHz / 1510 kbps / 24 bit |Original|
  • Субтитры: русские (srt), английские, английские (SDH)
  • Чаптеры: 32шт.
General
Unique ID : 250535955645343050526909128229493977985 (0xBC7B784C2C390958864301503FFCB381)
Complete name : C:\торрент\тор\Artificial.Intelligence.A.I.2001.Blu-ray.720p.x264-EbP.5xRus.Eng.mkv
Format : Matroska
Format version : Version 2
File size : 17.4 GiB
Duration : 2h 25mn
Overall bit rate : 17.1 Mbps
Encoded date : UTC 2011-04-12 20:36:29
Writing application : mkvmerge v4.6.0 ('Still Crazy After All These Years') сборка от Mar 10 2011 02:50:32
Writing library : libebml v1.2.0 + libmatroska v1.1.0

Video
ID : 1
Format : AVC
Format/Info : Advanced Video Codec
Format profile : High@L4.1
Format settings, CABAC : Yes
Format settings, ReFrames : 9 frames
Codec ID : V_MPEG4/ISO/AVC
Duration : 2h 25mn
Bit rate : 9 662 Kbps
Width : 1 280 pixels
Height : 720 pixels
Display aspect ratio : 16:9
Frame rate mode : Constant
Frame rate : 23.976 (24000/1001) fps
Color space : YUV
Chroma subsampling : 4:2:0
Bit depth : 8 bits
Scan type : Progressive
Bits/(Pixel*Frame) : 0.437
Stream size : 9.50 GiB (55%)
Title : A.I. Artificial Intelligence 2001 720p BluRay x264-EbP
Writing library : x264 core 114 r1924 08d04a4
Encoding settings : cabac=1 / ref=9 / deblock=1:-3:-3 / analyse=0x3:0x133 / me=tesa / subme=10 / psy=1 / psy_rd=1.20:0.00 / mixed_ref=1 / me_range=16 / chroma_me=1 / trellis=2 / 8x8dct=1 / cqm=0 / deadzone=21,11 / fast_pskip=0 / chroma_qp_offset=-2 / threads=18 / sliced_threads=0 / nr=0 / decimate=0 / interlaced=0 / constrained_intra=0 / bframes=9 / b_pyramid=2 / b_adapt=2 / b_bias=0 / direct=3 / weightb=1 / open_gop=0 / weightp=2 / keyint=250 / keyint_min=23 / scenecut=40 / intra_refresh=0 / rc=2pass / mbtree=0 / bitrate=9662 / ratetol=1.0 / qcomp=0.60 / qpmin=0 / qpmax=69 / qpstep=4 / cplxblur=20.0 / qblur=0.5 / ip_ratio=1.40 / pb_ratio=1.30 / aq=2:0.50
Language : English
Default : Yes
Forced : No

Audio #1
ID : 2
Format : AC-3
Format/Info : Audio Coding 3
Mode extension : CM (complete main)
Format settings, Endianness : Big
Codec ID : A_AC3
Duration : 2h 25mn
Bit rate mode : Constant
Bit rate : 640 Kbps
Channel(s) : 6 channels
Channel positions : Front: L C R, Side: L R, LFE
Sampling rate : 48.0 KHz
Frame rate : 31.250 fps (1536 spf)
Compression mode : Lossy
Stream size : 668 MiB (4%)
Title : Dub
Language : Russian
Default : Yes
Forced : No

Audio #2
ID : 3
Format : DTS
Format/Info : Digital Theater Systems
Mode : 16
Format settings, Endianness : Big
Codec ID : A_DTS
Duration : 2h 25mn
Bit rate mode : Constant
Bit rate : 1 509 Kbps
Channel(s) : 6 channels
Channel positions : Front: L C R, Side: L R, LFE
Sampling rate : 48.0 KHz
Frame rate : 93.750 fps (512 spf)
Bit depth : 24 bits
Compression mode : Lossy
Stream size : 1.54 GiB (9%)
Title : MVO Karusel
Language : Russian
Default : No
Forced : No

Audio #3
ID : 4
Format : DTS
Format/Info : Digital Theater Systems
Mode : 16
Format settings, Endianness : Big
Codec ID : A_DTS
Duration : 2h 25mn
Bit rate mode : Constant
Bit rate : 1 509 Kbps
Channel(s) : 6 channels
Channel positions : Front: L C R, Side: L R, LFE
Sampling rate : 48.0 KHz
Frame rate : 93.750 fps (512 spf)
Bit depth : 24 bits
Compression mode : Lossy
Stream size : 1.54 GiB (9%)
Title : MVO
Language : Russian
Default : No
Forced : No

Audio #4
ID : 5
Format : DTS
Format/Info : Digital Theater Systems
Mode : 16
Format settings, Endianness : Big
Codec ID : A_DTS
Duration : 2h 25mn
Bit rate mode : Constant
Bit rate : 1 509 Kbps
Channel(s) : 6 channels
Channel positions : Front: L C R, Side: L R, LFE
Sampling rate : 48.0 KHz
Frame rate : 93.750 fps (512 spf)
Bit depth : 24 bits
Compression mode : Lossy
Stream size : 1.54 GiB (9%)
Title : J. Zivov
Language : Russian
Default : No
Forced : No

Audio #5
ID : 6
Format : DTS
Format/Info : Digital Theater Systems
Mode : 16
Format settings, Endianness : Big
Codec ID : A_DTS
Duration : 2h 25mn
Bit rate mode : Constant
Bit rate : 755 Kbps
Channel(s) : 6 channels
Channel positions : Front: L C R, Side: L R, LFE
Sampling rate : 48.0 KHz
Frame rate : 93.750 fps (512 spf)
Bit depth : 24 bits
Compression mode : Lossy
Stream size : 787 MiB (4%)
Title : S. Vizgunov
Language : Russian
Default : No
Forced : No

Audio #6
ID : 7
Format : DTS
Format/Info : Digital Theater Systems
Format profile : ES Matrix / Core
Mode : 16
Format settings, Endianness : Big
Codec ID : A_DTS
Duration : 2h 25mn
Bit rate mode : Constant
Bit rate : 1 509 Kbps
Channel(s) : 7 channels / 6 channels
Channel positions : Front: L C R, Side: L R, Back: C, LFE / Front: L C R, Side: L R, LFE
Sampling rate : 48.0 KHz
Frame rate : 93.750 fps (512 spf)
Bit depth : 24 bits
Compression mode : Lossy
Stream size : 1.54 GiB (9%)
Language : English
Default : No
Forced : No

Text #1
ID : 8
Format : UTF-8
Codec ID : S_TEXT/UTF8
Codec ID/Info : UTF-8 Plain Text
Language : Russian
Default : No
Forced : No

Text #2
ID : 9
Format : UTF-8
Codec ID : S_TEXT/UTF8
Codec ID/Info : UTF-8 Plain Text
Language : English
Default : No
Forced : No

Text #3
ID : 10
Format : UTF-8
Codec ID : S_TEXT/UTF8
Codec ID/Info : UTF-8 Plain Text
Title : SDH
Language : English
Default : No
Forced : No

Menu
00:00:00.000 : en:Artificial Intelligence
00:07:09.971 : en:His Life is Merely Pending
00:10:12.654 : en:A Mecha Child
00:15:23.131 : en:Hide and Go Seek
00:18:31.319 : en:Laughter
00:21:42.301 : en:Imprinting Protocol
00:24:21.418 : en:Teddy, a Super-Toy
00:28:41.637 : en:Martin Comes Home
00:30:21.737 : en:The New Super-Toy
00:33:56.159 : en:A Classic Story
00:35:48.980 : en:Competition For Affection
00:39:57.604 : en:Mechas and Orgas
00:45:27.308 : en:Abandoned
00:53:46.432 : en:Gigolo Joe
00:57:45.837 : en:Unregistered Mecha Roundup
01:05:52.949 : en:Flesh Fair: A Celebration of Life
01:09:14.442 : en:"I'm a Boy"
01:17:48.581 : en:Journey Towards the Moon
01:22:28.902 : en:Rouge City
01:25:37.549 : en:Dr. Know
01:31:03.083 : en:"They Hate Us"
01:33:05.413 : en:Escape From Rouge City
01:35:07.285 : en:The City at the End of the World
01:37:55.745 : en:Special and Unique
01:43:43.634 : en:Brothers and Sisters
01:46:51.822 : en:David's Leap
01:49:21.305 : en:A Plea to the Blue Fairy
01:55:41.268 : en:Memories
02:01:33.912 : en:Back Home
02:07:08.204 : en:A Question of Happiness
02:11:42.186 : en:A Perfect Day
02:18:38.727 : en:End Credits
pb.wtf



Скачать Искусственный разум через торрент http://i74.fastpic.ru/big/2016/0123/55/d6895c638dacc4006ce5b7e29cb79255.jpg Скачать фильм Искусственный разум через торрент бесплантно в хорошем качестве Описание: В будущем мире вырвавшегося из-под контроля глобального потепления и пугающих достижений науки, смертные живут бок о бок с ... 9.9 10 13
Info! Золотая раздача, скачанное не засчитывается.
Торрент: Зарегистрирован [2016-01-23 13:19] · скачан: 131 раз
Статус: √ проверено
Размер: 17.42 GB
Как cкачать? Как скачать Искусственный разум через торрент | qTorrent

28-11-2019 20:33  

Отключить всю рекламу на сайте

23-01-2016 15:26 Искусственный разум Скачать торрент  

Как фильм кто смотрел, хоть какието коментарии пишите люди же стараются выкладывать для вас!pb.wtf



23-01-2016 16:34 Искусственный разум Скачать торрент  

karavo писал(а):

Как фильм кто смотрел, хоть какието коментарии пишите люди же стараются выкладывать для вас!

Я смотрел. С женой. Жена пол фильма плакала. До сих пор считаю данный фильм одним из сильнейших. Смотреть вечером, ни на что не отвлекаясь. Эффект обеспечен.pb.wtf



23-01-2016 16:36 Искусственный разум Скачать торрент  

Спасибо огромное автору!
Я когда-то давно смотрел этот фильм. Он обалденный!
Вот решил пересмотреть еще раз.pb.wtf



23-01-2016 18:40 Искусственный разум Скачать торрент  

Обалденный фильм , кто не смотрел , посмотрите обязательно !!! Любителям научной фантастики - в коллекцию .pb.wtf



24-01-2016 07:25 Искусственный разум Скачать торрент  

в свое время искал. фильм хорошийpb.wtf



24-01-2016 15:12 Искусственный разум Скачать торрент  

Сильный эмоциональный фильм. Рекомендую.pb.wtf



25-01-2016 23:00 Искусственный разум Скачать торрент  

Фильм супер .Не понятно мне до сих пор почему ему Оскара не дали.Даже в номинациях не был.Хотя по моему мнению победитель "Гладиатор" фильм намного слабееpb.wtf



26-01-2016 13:57 Искусственный разум Скачать торрент  

Смотрел тоже давно, неделю под впечатлением ходил. Актерская игра супер и сюжет просто невероятный! Советую к просмотру!pb.wtf



26-01-2016 17:33 Искусственный разум Скачать торрент  

жаль что с таким размером только hd
а комментарии у фильма 99% положительные на всех трекерахpb.wtf



30-07-2018 17:55 Искусственный разум Скачать торрент  

раздайте плзpb.wtf



    Дорогой пользователь! Огромная просьба, поблагодарите релизера, оцените раздачу и оставьте свои комментарий, если Вы скачали Искусственный разум через торрент бесплатно! Внесите свою лепту в развитие PiratBit!
    Комментировать посты могут только пользователи прошедшие не сложную регистрацию
    Показать сообщения:    

    Искусственный разум через торрент
    Скачать бесплатно Искусственный разум
    Искусственный разум скачать торрент
    Искусственный разум смотреть онлайн
    Cкачать фильм Искусственный разум бесплатно
    Искусственный разум скачать торрент в хорошем качестве
    Искусственный разум смотреть онлайн бесплатно в хорошем качестве


    Вы не можете начинать темы
    Вы не можете отвечать на сообщения
    Вы не можете редактировать свои сообщения
    Вы не можете удалять свои сообщения
    Вы не можете голосовать в опросах
    Вы не можете прикреплять файлы к сообщениям
    Вы можете скачивать файлы