Ссылка на приватное зеркало нашего сайта всего за 1$. Внимание количество ограничено!!!

2 сезон

iTunes

1 сезон

1

2 сезон

2 сезон

iTunes

1 сезон

RePack

30

Ultimate

ВАЖНО

ИГРА 18+

pack

RePack

MK11
pack

Забери бонус

RePack

jed

!!Акция!!

Alien_Rage

RePack

fifa19

RePack

Assassins Creed: Odyssey

RePack

NEED FOR SPEED™ PAYBACK

4 сезон

9 сезон

Бесстыжие 9 сезон

Все сериалы

все сериалы на PB.wtf

RePack

FAR CRY 5
  

Западная религия / Western Religion (Джеймс О’Брайэн) [2015, вестерн, WEB-DLRip, Любительский двухголосый [Parovoz Production] pb.wtf

Западная религия через торрент pb.wtf

Размер: 1.45 GB | Добавлен: 4 года 10 мес. назад | Торрент скачан:188 раз
Скачать  

23-01-2016 14:03 Западная религия Скачать торрент  


Западная религия / Western Religion
««Your soul is at stake in Religion, Arizona»»

ИНФОРМАЦИЯ:
Год выпуска:2015
Страна: США
Жанр: вестерн
Продолжительность: 01:45:20
Перевод: Любительский двухголосый [Parovoz Production]
Режиссер: Джеймс О’Брайэн

В Ролях:


Питер Шинкода (Chinaman Dan), Майлз Санто (Waylin Smith), Мерик Тадрос (Prince Zain Mohammed), Холлидей Хэдли (Bootstrap Bess), Vivian Lamolli (Black Jasmin), Питер Шерайко (Southern Bill), Джонатан Айли (Railroad Man), Ардешир Радпур (Cowboy), Стиг Элдред (Homesteader), Ясмин Канли (Candy Kate), Меган Хенсли (Clerk), Клод Дюамель (Anton Stice)

Описание:
Знаменитые игроки собираются опуститься в город шахт в Аризоне, где проходит ежегодный чемпионат по играм. Но игры не простые, теперь герои должны бороться за первое место в карточной игре – покер. На что способны игроки и чем все закончиться. Ведь обычно жульничать не принято, но ведь никто не может устоять против большой суммы денег.

  • Мировая премьера:16 мая 2015

    ТЕХ.ДАННЫЕ:
    Качество: WEB-DLRip
    Формат: AVI
    Видео: XviD, 720x304 (2.35:1), 1697 kbps, 23,976 fps, 0,323 bpp
    Аудио: AC3 / 2.0 / 48 kHz / 192 kbps / 16 bit


    General
    Complete name : D:\Торенты\3aPaDnAyA.ReLiG1a.2015.L2.WEB-DLRip.1490MB.avi
    Format : AVI
    Format/Info : Audio Video Interleave
    File size : 1.45 GiB
    Duration : 1h 45mn
    Overall bit rate : 1 976 Kbps
    Writing application : VirtualDubMod 1.5.10.3 | www.virtualdub-fr.org || (build 2550/release)
    Writing library : VirtualDubMod build 2550/release

    Video
    ID : 0
    Format : MPEG-4 Visual
    Format profile : Advanced Simple@L5
    Format settings, BVOP : 2
    Format settings, QPel : No
    Format settings, GMC : No warppoints
    Format settings, Matrix : Default (MPEG)
    Codec ID : XVID
    Codec ID/Hint : XviD
    Duration : 1h 45mn
    Bit rate : 1 697 Kbps
    Width : 720 pixels
    Height : 304 pixels
    Display aspect ratio : 2.35:1
    Frame rate : 23.976 fps
    Color space : YUV
    Chroma subsampling : 4:2:0
    Bit depth : 8 bits
    Scan type : Progressive
    Compression mode : Lossy
    Bits/(Pixel*Frame) : 0.323
    Stream size : 1.25 GiB (86%)
    Writing library : XviD 1.2.1 (UTC 2008-12-04)

    Audio
    ID : 1
    Format : AC-3
    Format/Info : Audio Coding 3
    Mode extension : CM (complete main)
    Codec ID : 2000
    Duration : 1h 45mn
    Bit rate mode : Constant
    Bit rate : 192 Kbps
    Channel(s) : 2 channels
    Channel positions : Front: L R
    Sampling rate : 48.0 KHz
    Bit depth : 16 bits
    Compression mode : Lossy
    Stream size : 145 MiB (10%)
    Alignment : Split accross interleaves
    Скриншоты:

    © Оформление by .::Ворон::.
    pb.wtf
    !Ворон писал(а):

    Присутствует реклама казино, в начале и конце фильма.



  • Скачать Западная религия через торрент http://pic.kartinco.top/images/6/ordi9.jpg Скачать фильм Западная религия через торрент бесплантно в хорошем качестве Описание: Знаменитые игроки собираются опуститься в город шахт в Аризоне, где проходит ежегодный чемпионат по играм. Но игры не простые, ... 8.6 10 8
    Торрент: Зарегистрирован [2016-01-23 14:03] · скачан: 188 раз
    Статус: T временная
    Размер: 1.45 GB
    Как cкачать? Как скачать Западная религия через торрент | qTorrent

    28-11-2019 20:33  

    Отключить всю рекламу на сайте

    23-01-2016 14:10 Западная религия Скачать торрент  



    pb.wtf



    24-01-2016 10:49 Западная религия Скачать торрент  

    Ворон, я так понимаю дубляжа не будет, так премьеры в РФ нету, ждать только многоголосого ?pb.wtf



    24-01-2016 11:02 Западная религия Скачать торрент  

    Russian Mafia писал(а):

    дубляжа не будет

    shake

    Russian Mafia писал(а):

    ждать только многоголосого ?

    хзpb.wtf



    27-01-2016 17:10 Западная религия Скачать торрент  

    От вестерна в фильме только антураж, а так это мистика среднего пошиба.
    Да к тому же в фильме полно голосовой и текстовой рекламы не только в начале и в конце а во время всего фильма.
    з.ы. Еще присутствует реклама стороннего трекера.pb.wtf



      Дорогой пользователь! Огромная просьба, поблагодарите релизера, оцените раздачу и оставьте свои комментарий, если Вы скачали Западная религия через торрент бесплатно! Внесите свою лепту в развитие PiratBit!
      Комментировать посты могут только пользователи прошедшие не сложную регистрацию
      Показать сообщения:    

      Западная религия через торрент
      Скачать бесплатно Западная религия
      Западная религия скачать торрент
      Западная религия смотреть онлайн
      Cкачать фильм Западная религия бесплатно
      Западная религия скачать торрент в хорошем качестве
      Западная религия смотреть онлайн бесплатно в хорошем качестве


      Вы не можете начинать темы
      Вы не можете отвечать на сообщения
      Вы не можете редактировать свои сообщения
      Вы не можете удалять свои сообщения
      Вы не можете голосовать в опросах
      Вы не можете прикреплять файлы к сообщениям
      Вы можете скачивать файлы