новый адрес
Мега распродажа FORZA HORIZON 4 ULTIMATE+ВСЕ DLC+ОНЛАЙН всего за 499р. 349 руб. (супер цена). Внимание количество ограничено!!!

iTunes

1+1

iTunes

мы

iTunes

1

iTunes

Чернобыль

iTunes

Ральф против интернета

Лицензия

ПШазам

Лицензия

Игра престолов

Лицензия

30
pack

ВАЖНО

!!Акция!!

Alien_RageХит недели

RePack

Resident Evil 21

ИГРА 18+

pack

RePack

Metro:Exodus

!!Акция!!

Alien_Rage

RePack

fifa19

RePack

Assassins Creed: Odyssey

RePack

NEED FOR SPEED™ PAYBACK

3 сезон

9 сезон

Бесстыжие 9 сезон

Все сериалы

все сериалы на PB.wtf

RePack

FAR CRY 5
Ребята, катастрофически не хватает 1900р. для оплаты серверов за Октябрь (всвязи с блокировками трафик упал в 3 раза), 1-2р., выручайте.
  

Округ беззакония / Lawless Range (Шон МакГинли) [2016, драма, вестерн, WEB-DLRip, Любительский двухголосый [Parovoz Production] pb.wtf

Округ беззакония через торрент pb.wtf

Размер: 1.38 GB | Добавлен: 3 года 9 мес. назад | Торрент скачан:190 раз
Скачать  

23-01-2016 14:06 Округ беззакония Скачать торрент  


Округ беззакония / Lawless Range


ИНФОРМАЦИЯ:
Год выпуска:2016
Страна: США
Жанр: драма, вестерн
Продолжительность: 01:24:43
Перевод: Любительский двухголосый [Parovoz Production]
Режиссер: Шон МакГинли

В Ролях:


Патрик Флюгер (Sean Donnelly), Даниэлла Алонсо (Claudia Donnelly), Джастин Арнольд (Rusty), Меган Аруффо (Attractive girl), Жаки Барнбрук (Carol), Fayelyn Bilodeau (Cashier), Charles Bisset (Charles), Бо Бриджес (Mr. Reed), Нил Браун мл. (Wesley Gonzalez), Курт Касерес (Eddie Obregon), Ски Карр (Brody Bro / Store Owner), Вианесса Кастаньос (Rosa)

Описание:
Братья, Шон и Томми Доннелли живут и работают в современном Техасе. Томми - вечный неудачник, а Шон всегда был рядом, чтобы помочь ему, но когда Томми влетает на $6000 и просит их в долг у брата Шон абсолютно бессилен. Деньги, причитаются очень опасным людям и ни у Шона, ни Томми нет ни копейки. На каждом шагу Томми удается найти способ, чтобы усугубить их и без того тяжелое положение. Ситуация обостряется до предела, когда Шон оказался перед выбором: остаться с братом или отказаться от него раз и навсегда.

  • Мировая премьера:5 января 2016

    ТЕХ.ДАННЫЕ:
    Качество: WEB-DLRip
    Формат: AVI
    Видео: XviD, 720x304 (2.35:1), 1850 kbps, 23,976 fps, 0,353 bpp
    Аудио: AC3 / 2.0 / 48 kHz / 384 kbps / 16 bit


    General
    Complete name : D:\Торенты\0kRuG.Be3zaK0n1yA.2016.L2.WEB-DLRip.1400MB.avi
    Format : AVI
    Format/Info : Audio Video Interleave
    File size : 1.38 GiB
    Duration : 1h 24mn
    Overall bit rate : 2 335 Kbps
    Writing application : VirtualDubMod 1.5.10.3 | www.virtualdub-fr.org || (build 2550/release)
    Writing library : VirtualDubMod build 2550/release

    Video
    ID : 0
    Format : MPEG-4 Visual
    Format profile : Advanced Simple@L5
    Format settings, BVOP : 2
    Format settings, QPel : No
    Format settings, GMC : No warppoints
    Format settings, Matrix : Default (MPEG)
    Codec ID : XVID
    Codec ID/Hint : XviD
    Duration : 1h 24mn
    Bit rate : 1 850 Kbps
    Width : 720 pixels
    Height : 304 pixels
    Display aspect ratio : 2.35:1
    Frame rate : 23.976 fps
    Color space : YUV
    Chroma subsampling : 4:2:0
    Bit depth : 8 bits
    Scan type : Progressive
    Compression mode : Lossy
    Bits/(Pixel*Frame) : 0.353
    Stream size : 1.09 GiB (79%)
    Writing library : XviD 1.2.1 (UTC 2008-12-04)

    Audio
    ID : 1
    Format : AC-3
    Format/Info : Audio Coding 3
    Mode extension : CM (complete main)
    Codec ID : 2000
    Duration : 1h 24mn
    Bit rate mode : Constant
    Bit rate : 384 Kbps
    Channel(s) : 2 channels
    Channel positions : Front: L R
    Sampling rate : 48.0 KHz
    Bit depth : 16 bits
    Compression mode : Lossy
    Stream size : 233 MiB (16%)
    Alignment : Split accross interleaves
    Скриншоты:

    © Оформление by .::Ворон::.
    pb.wtf
    !Ворон писал(а):

    Присутствует реклама казино, в начале и конце фильма.



  • Скачать Округ беззакония через торрент http://pic.kartinco.top/images/6/ordi9.jpg Скачать фильм Округ беззакония через торрент бесплантно в хорошем качестве Описание: Братья, Шон и Томми Доннелли живут и работают в современном Техасе. Томми - вечный неудачник, а Шон всегда был рядом, чтобы ... 7.5 10 6
    Торрент: Зарегистрирован [2016-01-23 14:06] · скачан: 190 раз
    Статус: T временная
    Размер: 1.38 GB
    Как cкачать? Как скачать Округ беззакония через торрент | qTorrent


    >> Регистрируемся здесь <<






    Отзывы и комментарии о схеме читаем и пишем здесь: ---> Отзывы и комментарии о схеме

    Новые благодарочки в телеграм довольных пользователей:
    скриншот   скриншот   скриншот   скриншот   скриншот
      Дорогой пользователь! Огромная просьба, поблагодарите релизера, оцените раздачу и оставьте свои комментарий, если Вы скачали Округ беззакония через торрент бесплатно! Внесите свою лепту в развитие PiratBit!
      Комментировать посты могут только пользователи прошедшие не сложную регистрацию
      Показать сообщения:    

      Округ беззакония через торрент
      Скачать бесплатно Округ беззакония
      Округ беззакония скачать торрент
      Округ беззакония смотреть онлайн
      Cкачать фильм Округ беззакония бесплатно
      Округ беззакония скачать торрент в хорошем качестве
      Округ беззакония смотреть онлайн бесплатно в хорошем качестве


      Вы не можете начинать темы
      Вы не можете отвечать на сообщения
      Вы не можете редактировать свои сообщения
      Вы не можете удалять свои сообщения
      Вы не можете голосовать в опросах
      Вы не можете прикреплять файлы к сообщениям
      Вы можете скачивать файлы