Ссылка на приватное зеркало всего за 1$. Внимание количество ограничено!!!

OK

1+1

iTunes

мы

OK

1

WEB-DLRip

Джокер

Пифагор

Ведьмак / The Witcher сериал

iTunes

ПШазам

ОК

Оно 2

iTunes

30
pack

Вам бонус

ВАЖНО

!!Акция!!

Alien_RageХит недели

RePack

Resident Evil 21

ИГРА 18+

pack

RePack

jed

RePack

fifa19

RePack

Assassins Creed: Odyssey

RePack

NEED FOR SPEED™ PAYBACK

4 сезон

9 сезон

Бесстыжие 9 сезон

Все сериалы

все сериалы на PB.wtf

RePack

FAR CRY 5
  

Конец тура / The End of the Tour (Джеймс Понсольдт / James Ponsoldt) [2015, драма, BDRip-AVC от potroks] MVO [iTunes] pb.wtf

Конец тура через торрент pb.wtf

Размер: 2.13 GB | Добавлен: 4 года назад | Торрент скачан:271 раз
Скачать  

24-01-2016 05:42 Конец тура Скачать торрент  

Конец тура / The End of the Tour
«Imagine the greatest conversation you've ever had»
Год выпуска: 2015
Страна: США / Anonymous Content, Kilburn Media, Modern Man Films
Жанр: драма
Продолжительность: 01:46:10
Перевод: Профессиональный (многоголосый) [iTunes]
Субтитры: русские (форс./potroks), русские (unknown), русские (Notabenoid), английские (Full + SDH)
Навигация по главам: есть
Режиссер: Джеймс Понсольдт / James Ponsoldt
В ролях:

Анна Кламски (Sarah), Джесси Айзенберг (David Lipsky), Джейсон Сигел (David Foster Wallace), Мэми Гаммер (Julie), Джоан Кьюсак (Patty), Рон Ливингстон (David Lipsky's Editor), Мики Самнер (Betsy), Бекки Энн Бэйкер (Bookstore Manager), Пуннавит Кой (Movie Goer), Ноэль Флетчер (ISU Student), Челси Энн Лоуренс (Aquarium visitor / Dating movie goes), Джейвон Андерсон (Student #2)
Описание: Вскоре после публикации романа «Бесконечная шутка» (позднее вошедшим в список ста лучших романов XX века по мнению Time) писатель Дэвид Фостер Уоллес отправляется в поездку с журналистом Rolling Stone Дэвидом Липски, готовящем о нем статью. За пять дней между ними возникла некая доверительная связь, позволившая каждому из них поделиться своими сокровенными мыслями и желаниями. Так или иначе, интервью никогда не было опубликовано - аудиокассеты отправились в шкаф Липски, а сами герои так больше и не встретились.

Качество: BDRip-AVC
Формат: MKV
Видео кодек: AVC
Аудио кодек: AC3
Видео: AVC, 1056x440 (2.40:1), 2043 kbps, 23,976 fps, 0,183 bit/pixel
Аудио №1: AC3 / 5.1 / 48 kHz / 384 kbps / 16 bit | RUS
Аудио №2: AC3 / 5.1 / 48 kHz / 448 kbps / 16 bit | ENG

Релиз группы:
Автор рипа: potroks

Код:

General
Unique ID                   : 185945783675071195258430880579051926531 (0x8BE3DAF3B60E2A32A739F2D4F4A93403)
Complete name               : Konetc.Tura.2015.DUAL.BDRip.x264.-HELLYWOOD.mkv
Format                      : Matroska
Format version              : Version 4 / Version 2
File size                   : 2.13 GiB
Duration                    : 1h 46mn
Overall bit rate            : 2 875 Kbps
Movie name                  : The End of the Tour (2015) - HELLYWOOD
Encoded date                : UTC 2010-02-22 21:41:31
Writing application         : mkvmerge v5.8.0 ('No Sleep / Pillow') built on Sep 30 2012 10:57:14
Writing library             : libebml v1.3.0 + libmatroska v1.4.0

Video
ID                          : 1
Format                      : AVC
Format/Info                 : Advanced Video Codec
Format profile              : High@L4.1
Format settings, CABAC      : Yes
Format settings, ReFrames   : 10 frames
Codec ID                    : V_MPEG4/ISO/AVC
Duration                    : 1h 46mn
Bit rate                    : 2 043 Kbps
Width                       : 1 056 pixels
Height                      : 440 pixels
Display aspect ratio        : 2.40:1
Frame rate mode             : Constant
Frame rate                  : 23.976 (24000/1001) fps
Color space                 : YUV
Chroma subsampling          : 4:2:0
Bit depth                   : 8 bits
Scan type                   : MBAFF
Scan type, store method     : Interleaved fields
Scan order                  : Top Field First
Bits/(Pixel*Frame)          : 0.183
Stream size                 : 1.47 GiB (69%)
Title                       : potroks
Writing library             : x264 core 148 r2665M a01e339
Encoding settings           : cabac=1 / ref=10 / deblock=1:-3:-3 / analyse=0x3:0x133 / me=umh / subme=11 / psy=1 / psy_rd=1.00:0.00 / mixed_ref=1 / me_range=48 / chroma_me=1 / trellis=2 / 8x8dct=1 / cqm=0 / deadzone=21,11 / fast_pskip=0 / chroma_qp_offset=-2 / threads=10 / lookahead_threads=2 / sliced_threads=0 / nr=0 / decimate=1 / interlaced=tff / bluray_compat=0 / constrained_intra=0 / bframes=11 / b_pyramid=2 / b_adapt=2 / b_bias=0 / direct=3 / weightb=1 / open_gop=0 / weightp=0 / keyint=240 / keyint_min=23 / scenecut=40 / intra_refresh=0 / rc=2pass / mbtree=0 / bitrate=2043 / ratetol=1.0 / qcomp=0.70 / qpmin=0 / qpmax=69 / qpstep=4 / cplxblur=20.0 / qblur=0.5 / ip_ratio=1.35 / pb_ratio=1.25 / aq=1:0.80
Language                    : English
Default                     : Yes
Forced                      : No

Audio #1
ID                          : 2
Format                      : AC-3
Format/Info                 : Audio Coding 3
Mode extension              : CM (complete main)
Format settings, Endianness : Big
Codec ID                    : A_AC3
Duration                    : 1h 46mn
Bit rate mode               : Constant
Bit rate                    : 384 Kbps
Channel(s)                  : 6 channels
Channel positions           : Front: L C R, Side: L R, LFE
Sampling rate               : 48.0 KHz
Frame rate                  : 31.250 fps (1536 spf)
Compression mode            : Lossy
Stream size                 : 292 MiB (13%)
Title                       : MVO | DD 5.1 @ 384 kbps -  iTunes
Language                    : Russian
Default                     : Yes
Forced                      : No

Audio #2
ID                          : 3
Format                      : AC-3
Format/Info                 : Audio Coding 3
Mode extension              : CM (complete main)
Format settings, Endianness : Big
Codec ID                    : A_AC3
Duration                    : 1h 46mn
Bit rate mode               : Constant
Bit rate                    : 448 Kbps
Channel(s)                  : 6 channels
Channel positions           : Front: L C R, Side: L R, LFE
Sampling rate               : 48.0 KHz
Frame rate                  : 31.250 fps (1536 spf)
Compression mode            : Lossy
Stream size                 : 340 MiB (16%)
Title                       : Original | DD 5.1 @ 448 kbps
Language                    : English
Default                     : No
Forced                      : No

Text #1
ID                          : 4
Format                      : UTF-8
Codec ID                    : S_TEXT/UTF8
Codec ID/Info               : UTF-8 Plain Text
Title                       : Forced [potroks]
Language                    : Russian
Default                     : Yes
Forced                      : No

Text #2
ID                          : 5
Format                      : UTF-8
Codec ID                    : S_TEXT/UTF8
Codec ID/Info               : UTF-8 Plain Text
Title                       : unknown
Language                    : Russian
Default                     : No
Forced                      : No

Text #3
ID                          : 6
Format                      : UTF-8
Codec ID                    : S_TEXT/UTF8
Codec ID/Info               : UTF-8 Plain Text
Title                       : Notabenoid
Language                    : Russian
Default                     : No
Forced                      : No

Text #4
ID                          : 7
Format                      : UTF-8
Codec ID                    : S_TEXT/UTF8
Codec ID/Info               : UTF-8 Plain Text
Title                       : Full
Language                    : English
Default                     : No
Forced                      : No

Text #5
ID                          : 8
Format                      : UTF-8
Codec ID                    : S_TEXT/UTF8
Codec ID/Info               : UTF-8 Plain Text
Title                       : SDH
Language                    : English
Default                     : No
Forced                      : No

Menu
00:00:00.000                : :Chapter 01
00:03:21.743                : :Chapter 02
00:12:07.893                : :Chapter 03
00:19:51.190                : :Chapter 04
00:32:19.145                : :Chapter 05
00:38:18.045                : :Chapter 06
00:43:48.667                : :Chapter 07
00:48:33.911                : :Chapter 08
00:53:36.671                : :Chapter 09
00:59:31.276                : :Chapter 10
01:07:33.841                : :Chapter 11
01:14:04.398                : :Chapter 12
01:21:59.331                : :Chapter 13
01:25:07.727                : :Chapter 14
01:32:02.517                : :Chapter 15
01:38:22.521                : :Chapter 16

pb.wtf



Скачать Конец тура через торрент http://i67.fastpic.ru/big/2016/0124/ad/4094e3e46969033ae4ba60d30ab67cad.png Скачать фильм Конец тура через торрент бесплантно в хорошем качестве Описание: Вскоре после публикации романа «Бесконечная шутка» (позднее вошедшим в список ста лучших романов XX века по мнению Time) ... 8.5 10 6
Info! Золотая раздача, скачанное не засчитывается.
Торрент: Зарегистрирован [2016-01-24 05:42] · скачан: 271 раз
Статус: √ проверено
Размер: 2.13 GB
Как cкачать? Как скачать Конец тура через торрент | qTorrent

% Раздел Тема Автор DL S | L
Фильмы 2015 [DVDrip, WEB-DLRip, HDrip] [ 1.41 GB ] Конец тура / The End of the Tour [2015 BDRip-AVC от sokol_ok] MVO sokol_ok Скачать
2 | 0
Фильмы [HD 720p, 1080p] (Хороший звук DUB, MVO) [ 14.38 GB ] Конец тура / The End of the Tour [2015 BDRip 1080p от _denis_100 / NNNB] 3xMVO _denis_100 Скачать
1 | 0
Фильмы 2015 [DVDrip, WEB-DLRip, HDrip] [ 2.13 GB ] Конец тура / The End of the Tour [2015 BDRip-AVC от sokol_ok] MVO sokol_ok Скачать
2 | 0
Фильмы 2015 [DVDrip, WEB-DLRip, HDrip] [ 2.14 GB ] Конец тура / The End of the Tour [2015 HDRip многоголосый закадровый ""] coc900 Скачать
1 | 0
Фильмы 2015 [DVDrip, WEB-DLRip, HDrip] [ 1.37 GB ] Конец тура / The End of the Tour [2015 HDRip MVO Ворон Скачать
1 | 0

28-11-2019 20:33  

Отключить всю рекламу на сайте

    Дорогой пользователь! Огромная просьба, поблагодарите релизера, оцените раздачу и оставьте свои комментарий, если Вы скачали Конец тура через торрент бесплатно! Внесите свою лепту в развитие PiratBit!
    Комментировать посты могут только пользователи прошедшие не сложную регистрацию
    Показать сообщения:    

    Конец тура через торрент
    Скачать бесплатно Конец тура
    Конец тура скачать торрент
    Конец тура смотреть онлайн
    Cкачать фильм Конец тура бесплатно
    Конец тура скачать торрент в хорошем качестве
    Конец тура смотреть онлайн бесплатно в хорошем качестве


    Вы не можете начинать темы
    Вы не можете отвечать на сообщения
    Вы не можете редактировать свои сообщения
    Вы не можете удалять свои сообщения
    Вы не можете голосовать в опросах
    Вы не можете прикреплять файлы к сообщениям
    Вы можете скачивать файлы