Ссылка на приватное зеркало всего за 1$. Внимание количество ограничено!!!

OK

1+1

iTunes

мы

OK

1

WEB-DLRip

Джокер

Пифагор

Ведьмак / The Witcher сериал

iTunes

ПШазам

ОК

Оно 2

iTunes

30
pack

Вам бонус

ВАЖНО

!!Акция!!

Alien_RageХит недели

RePack

Resident Evil 21

ИГРА 18+

pack

RePack

jed

RePack

fifa19

RePack

Assassins Creed: Odyssey

RePack

NEED FOR SPEED™ PAYBACK

4 сезон

9 сезон

Бесстыжие 9 сезон

Все сериалы

все сериалы на PB.wtf

RePack

FAR CRY 5
  

Стажёр / The Intern (Нэнси Майерс / Nancy Meyers) [2015, мелодрама, комедия, BDRip-AVC от potroks] DUB Лицензия pb.wtf

Стажёр через торрент pb.wtf

Раздают: 2 [ 0 KB/s ]
Размер: 1.46 GB | Добавлен: 4 года назад | Торрент скачан:1117 раз
Скачать  

24-01-2016 21:28 Стажёр Скачать торрент  

Стажёр / The Intern
«Опыт всегда в моде»
Год выпуска: 2015
Страна: США / Waverly Films
Жанр: мелодрама, комедия
Продолжительность: 02:01:31
Перевод: Дубляж [BD CEE]
Субтитры: русские (полные + форс)
Навигация по главам: есть
Режиссер: Нэнси Майерс / Nancy Meyers
В ролях:





Роберт Де Ниро (Ben), Энн Хэтэуэй (Jules), Рене Руссо (Fiona), Андерс Холм (Matt), ДжоДжо Кушнер (Paige), Эндрю Рэннеллс (Cameron), Адам Дивайн (Jason), Зак Перлман (Davis), Джейсон Орли (Lewis), Кристина Шерер (Becky), Нат Вулф (Justin), Линда Лавин (Patty)




Описание: 70-летний вдовец Бен Уитакер обнаруживает, что выход на пенсию - еще не конец. Пользуясь случаем, он становится старшим стажером в интернет-магазине модной одежды под руководством Джулс Остин.





Качество: BDRip-AVC
Формат: MKV
Видео кодек: AVC
Аудио кодек: AC3
Видео: 824x464 (16:9), 1592 kbps, 23,976 fps, 0,174 bit/pixel
Аудио: AC3 / 2.0 / 48 kHz / 128 kbps / 16 bit

Релиз группы:
Автор рипа: potroks

Код:

General
Unique ID                                : 242814428679717961794960976565757281017 (0xB6AC5BA024E28DF68663C1BC7F3802F9)
Complete name                            : Stazhor.2015.RUS.BDRip.x264.-HELLYWOOD.mkv
Format                                   : Matroska
Format version                           : Version 4 / Version 2
File size                                : 1.46 GiB
Duration                                 : 2h 1mn
Overall bit rate                         : 1 718 Kbps
Movie name                               : The Intern (2015) - HELLYWOOD
Encoded date                             : UTC 2010-02-22 21:41:31
Writing application                      : mkvmerge v5.8.0 ('No Sleep / Pillow') built on Sep 30 2012 10:57:14
Writing library                          : libebml v1.3.0 + libmatroska v1.4.0

Video
ID                                       : 1
Format                                   : AVC
Format/Info                              : Advanced Video Codec
Format profile                           : High@L4.1
Format settings, CABAC                   : Yes
Format settings, ReFrames                : 12 frames
Codec ID                                 : V_MPEG4/ISO/AVC
Duration                                 : 2h 1mn
Bit rate                                 : 1 592 Kbps
Width                                    : 824 pixels
Height                                   : 464 pixels
Display aspect ratio                     : 16:9
Frame rate                               : 23.976 fps
Color space                              : YUV
Chroma subsampling                       : 4:2:0
Bit depth                                : 8 bits
Scan type                                : Progressive
Bits/(Pixel*Frame)                       : 0.174
Stream size                              : 1.32 GiB (91%)
Title                                    : potroks
Writing library                          : x264 core 146 r2538 121396c
Encoding settings                        : cabac=1 / ref=12 / deblock=1:-2:-2 / analyse=0x3:0x113 / me=umh / subme=11 / psy=1 / psy_rd=1.00:0.05 / mixed_ref=1 / me_range=48 / chroma_me=1 / trellis=2 / 8x8dct=1 / cqm=0 / deadzone=21,11 / fast_pskip=0 / chroma_qp_offset=-3 / threads=9 / lookahead_threads=2 / sliced_threads=0 / nr=0 / decimate=1 / interlaced=0 / bluray_compat=0 / constrained_intra=0 / bframes=13 / b_pyramid=2 / b_adapt=2 / b_bias=0 / direct=3 / weightb=1 / open_gop=0 / weightp=2 / keyint=240 / keyint_min=23 / scenecut=40 / intra_refresh=0 / rc_lookahead=60 / rc=2pass / mbtree=0 / bitrate=1592 / ratetol=1.0 / qcomp=0.70 / qpmin=0 / qpmax=69 / qpstep=4 / cplxblur=20.0 / qblur=0.5 / vbv_maxrate=14000 / vbv_bufsize=14000 / nal_hrd=none / filler=0 / ip_ratio=1.35 / pb_ratio=1.25 / aq=1:0.80
Language                                 : English
Default                                  : Yes
Forced                                   : No

Audio
ID                                       : 2
Format                                   : AC-3
Format/Info                              : Audio Coding 3
Mode extension                           : CM (complete main)
Codec ID                                 : A_AC3
Duration                                 : 2h 1mn
Bit rate mode                            : Constant
Bit rate                                 : 128 Kbps
Channel(s)                               : 2 channels
Channel positions                        : Front: L R
Sampling rate                            : 48.0 KHz
Bit depth                                : 16 bits
Compression mode                         : Lossy
Stream size                              : 111 MiB (7%)
Title                                    : Dub | DD 2.0 @ 128 kbps - Blu-Ray CEE
Language                                 : Russian
Default                                  : Yes
Forced                                   : No

Text #1
ID                                       : 3
Format                                   : UTF-8
Codec ID                                 : S_TEXT/UTF8
Codec ID/Info                            : UTF-8 Plain Text
Title                                    : Forced
Language                                 : Russian
Default                                  : Yes
Forced                                   : No

Text #2
ID                                       : 4
Format                                   : UTF-8
Codec ID                                 : S_TEXT/UTF8
Codec ID/Info                            : UTF-8 Plain Text
Title                                    : iTunes
Language                                 : Russian
Default                                  : No
Forced                                   : No

Menu
00:00:00.000                             : en:(01)00:00:00:000
00:09:31.153                             : en:(02)00:09:31:153
00:19:55.359                             : en:(03)00:19:55:359
00:30:29.952                             : en:(04)00:30:29:952
00:41:18.434                             : en:(05)00:41:18:434
00:50:18.681                             : en:(06)00:50:18:681
01:00:34.047                             : en:(07)01:00:34:047
01:10:19.046                             : en:(08)01:10:19:046
01:19:16.460                             : en:(09)01:19:16:460
01:30:59.912                             : en:(10)01:30:59:912
01:42:48.494                             : en:(11)01:42:48:494
01:51:11.206                             : en:(12)01:51:11:206
01:56:41.993                             : en:(13)01:56:41:993
02:01:31.701                             : en:(14)02:01:31:701

pb.wtf



Скачать Стажёр через торрент http://i66.fastpic.ru/big/2016/0125/7d/a34a6aec61a7070579201d7ce1d2b07d.png Скачать фильм Стажёр через торрент бесплантно в хорошем качестве Описание: 70-летний вдовец Бен Уитакер обнаруживает, что выход на пенсию - еще не конец. Пользуясь случаем, он становится старшим стажером ... 9.9 10 7
Info! Золотая раздача, скачанное не засчитывается.
Торрент: Зарегистрирован [2016-01-24 21:28] · скачан: 1 117 раз
Статус: √ проверено
Размер: 1.46 GB
Как cкачать? Как скачать Стажёр через торрент | qTorrent

% Раздел Тема Автор DL S | L
Фильмы 2015 [DVDrip, WEB-DLRip, HDrip] [ 2.9 GB ] Стажёр / The Intern [2015 BDRip-AVC] DUB potroks Скачать
2 | 0
Фильмы 2015 [DVDrip, WEB-DLRip, HDrip] [ 2.9 GB ] Стажёр / The Intern [2015 BDRip-AVC от sokol_ok] DUB sokol_ok Скачать
4 | 0
Фильмы 2015 [DVDrip, WEB-DLRip, HDrip] [ 745 MB ] Стажёр / The Intern [2015 BDRip-AVC от sokol_ok] DUB sokol_ok Скачать
3 | 0
Фильмы 2015 [DVDrip, WEB-DLRip, HDrip] [ 1.45 GB ] Стажёр / The Intern [2015 BDRip-AVC от sokol_ok] DUB sokol_ok Скачать
2 | 0
Фильмы 2015 [DVDrip, WEB-DLRip, HDrip] [ 1.46 GB ] Стажер / The Intern [2015 BDRip] DUB Twi7ter Скачать
1 | 0

28-11-2019 20:33  

Отключить всю рекламу на сайте

27-02-2016 17:45 Стажёр Скачать торрент  

Очень добрый, положительный фильм, давно таких не смотрел.pb.wtf



    Дорогой пользователь! Огромная просьба, поблагодарите релизера, оцените раздачу и оставьте свои комментарий, если Вы скачали Стажёр через торрент бесплатно! Внесите свою лепту в развитие PiratBit!
    Комментировать посты могут только пользователи прошедшие не сложную регистрацию
    Показать сообщения:    

    Стажёр через торрент
    Скачать бесплатно Стажёр
    Стажёр скачать торрент
    Стажёр смотреть онлайн
    Cкачать фильм Стажёр бесплатно
    Стажёр скачать торрент в хорошем качестве
    Стажёр смотреть онлайн бесплатно в хорошем качестве


    Вы не можете начинать темы
    Вы не можете отвечать на сообщения
    Вы не можете редактировать свои сообщения
    Вы не можете удалять свои сообщения
    Вы не можете голосовать в опросах
    Вы не можете прикреплять файлы к сообщениям
    Вы можете скачивать файлы