Ссылка на приватное зеркало всего за 1$. Внимание количество ограничено!!!

OK

1+1

iTunes

мы

OK

1

WEB-DLRip

Джокер

Пифагор

Ведьмак / The Witcher сериал

iTunes

ПШазам

ОК

Оно 2

iTunes

30
pack

Вам бонус

ВАЖНО

!!Акция!!

Alien_RageХит недели

RePack

Resident Evil 21

ИГРА 18+

pack

RePack

jed

RePack

fifa19

RePack

Assassins Creed: Odyssey

RePack

NEED FOR SPEED™ PAYBACK

4 сезон

9 сезон

Бесстыжие 9 сезон

Все сериалы

все сериалы на PB.wtf

RePack

FAR CRY 5
  

Кто там / Knock Knock (Элай Рот / Eli Roth) [2015, триллер, BDRip-AVC от potroks] Dub [iTunes] pb.wtf

Кто там через торрент pb.wtf

Размер: 2.14 GB | Добавлен: 4 года назад | Торрент скачан:742 раза
Скачать  

25-01-2016 08:51 Кто там Скачать торрент  

Кто там / Knock Knock
«Бойся своих желаний»
Год выпуска: 2015
Страна: Чили, США / Camp Grey, Dragonfly Entertainment, Sobras International Pictures...
Жанр: триллер
Продолжительность: 01:39:20
Перевод: Дубляж [iTunes]
Субтитры: русские, английские (Full + SDH + SDH-Colored)
Навигация по главам: есть
Режиссер: Элай Рот / Eli Roth
В ролях:

Киану Ривз (Evan), Лоренца Иззо (Genesis), Ана де Армас (Bell), Аарон Барнс (Louis), Игнасия Алламанд (Karen), Дэн Бейли (Jake), Меган Бейли (Lisa), Коллин Кэмп (Vivian), Антонио Куэрча (Uber Driver), Otto (Monkey)
Описание: Отправив семью за город, архитектор Эван остается на выходных дома один доделывать срочный проект.
К нему стучатся две милые молодые девушки лет двадцати, насквозь промокшие и заблудившиеся. Эван не мог предположить, что протянутая рука помощи обернется для него чередой изощренных издевательств, изысканных пыток и медленного садистского уничтожения семьи...

Качество: BDRip-AVC
Формат: MKV
Видео кодек: AVC
Аудио кодек: AC3
Видео: 1060x444 (2.40:1), 2246 kbps, 23,976 fps, 0,199 bit/pixel
Аудио №1: AC3 / 5.1 / 48 kHz / 384 kbps / 16 bit | RUS
Аудио №2: AC3 / 5.1 / 48 kHz / 448 kbps / 16 bit | ENG

Релиз группы:
Автор рипа: potroks

Код:

General
Unique ID                   : 209021404863619355920717474573128537502 (0x9D400EEA6BA70E90B63C23CD54F3959E)
Complete name               : Kto.Tam.2015.DUAL.BDRip.x264.-HELLYWOOD.mkv
Format                      : Matroska
Format version              : Version 4 / Version 2
File size                   : 2.14 GiB
Duration                    : 1h 39mn
Overall bit rate            : 3 077 Kbps
Movie name                  : Knock Knock (2015) - HELLYWOOD
Encoded date                : UTC 2010-02-22 21:41:31
Writing application         : mkvmerge v5.8.0 ('No Sleep / Pillow') built on Sep 30 2012 10:57:14
Writing library             : libebml v1.3.0 + libmatroska v1.4.0

Video
ID                          : 1
Format                      : AVC
Format/Info                 : Advanced Video Codec
Format profile              : High@L4.1
Format settings, CABAC      : Yes
Format settings, ReFrames   : 10 frames
Codec ID                    : V_MPEG4/ISO/AVC
Duration                    : 1h 39mn
Bit rate                    : 2 246 Kbps
Width                       : 1 060 pixels
Height                      : 444 pixels
Display aspect ratio        : 2.40:1
Frame rate mode             : Constant
Frame rate                  : 23.976 fps
Color space                 : YUV
Chroma subsampling          : 4:2:0
Bit depth                   : 8 bits
Scan type                   : Progressive
Bits/(Pixel*Frame)          : 0.199
Stream size                 : 1.52 GiB (71%)
Title                       : potroks
Writing library             : x264 core 146 r2538 121396c
Encoding settings           : cabac=1 / ref=10 / deblock=1:-2:-2 / analyse=0x3:0x113 / me=umh / subme=11 / psy=1 / psy_rd=1.00:0.05 / mixed_ref=1 / me_range=48 / chroma_me=1 / trellis=2 / 8x8dct=1 / cqm=0 / deadzone=21,11 / fast_pskip=0 / chroma_qp_offset=-3 / threads=9 / lookahead_threads=2 / sliced_threads=0 / nr=0 / decimate=0 / interlaced=0 / bluray_compat=0 / constrained_intra=0 / bframes=11 / b_pyramid=2 / b_adapt=2 / b_bias=0 / direct=3 / weightb=1 / open_gop=0 / weightp=2 / keyint=240 / keyint_min=23 / scenecut=40 / intra_refresh=0 / rc_lookahead=60 / rc=2pass / mbtree=0 / bitrate=2246 / ratetol=1.0 / qcomp=0.70 / qpmin=0 / qpmax=69 / qpstep=4 / cplxblur=20.0 / qblur=0.5 / vbv_maxrate=14000 / vbv_bufsize=14000 / nal_hrd=none / filler=0 / ip_ratio=1.40 / pb_ratio=1.30 / aq=1:0.80
Language                    : English
Default                     : Yes
Forced                      : No

Audio #1
ID                          : 2
Format                      : AC-3
Format/Info                 : Audio Coding 3
Mode extension              : CM (complete main)
Format settings, Endianness : Big
Codec ID                    : A_AC3
Duration                    : 1h 39mn
Bit rate mode               : Constant
Bit rate                    : 384 Kbps
Channel(s)                  : 6 channels
Channel positions           : Front: L C R, Side: L R, LFE
Sampling rate               : 48.0 KHz
Frame rate                  : 31.250 fps (1536 spf)
Compression mode            : Lossy
Delay relative to video     : 24ms
Stream size                 : 273 MiB (12%)
Title                       : Dub | DD 5.1 @ 384 kbps - iTunes
Language                    : Russian
Default                     : Yes
Forced                      : No

Audio #2
ID                          : 3
Format                      : AC-3
Format/Info                 : Audio Coding 3
Mode extension              : CM (complete main)
Format settings, Endianness : Big
Codec ID                    : A_AC3
Duration                    : 1h 39mn
Bit rate mode               : Constant
Bit rate                    : 448 Kbps
Channel(s)                  : 6 channels
Channel positions           : Front: L C R, Side: L R, LFE
Sampling rate               : 48.0 KHz
Frame rate                  : 31.250 fps (1536 spf)
Compression mode            : Lossy
Stream size                 : 318 MiB (15%)
Title                       : Original | DD 5.1 @ 448 kbps
Language                    : English
Default                     : No
Forced                      : No

Text #1
ID                          : 4
Format                      : UTF-8
Codec ID                    : S_TEXT/UTF8
Codec ID/Info               : UTF-8 Plain Text
Language                    : Russian
Default                     : No
Forced                      : No

Text #2
ID                          : 5
Format                      : UTF-8
Codec ID                    : S_TEXT/UTF8
Codec ID/Info               : UTF-8 Plain Text
Title                       : Full
Language                    : English
Default                     : No
Forced                      : No

Text #3
ID                          : 6
Format                      : UTF-8
Codec ID                    : S_TEXT/UTF8
Codec ID/Info               : UTF-8 Plain Text
Title                       : SDH
Language                    : English
Default                     : No
Forced                      : No

Text #4
ID                          : 7
Format                      : UTF-8
Codec ID                    : S_TEXT/UTF8
Codec ID/Info               : UTF-8 Plain Text
Title                       : SDH-Colored
Language                    : English
Default                     : No
Forced                      : No

Menu
00:00:00.000                : en:Chapter 01
00:06:30.640                : en:Chapter 02
00:12:59.987                : en:Chapter 03
00:20:07.247                : en:Chapter 04
00:27:20.388                : en:Chapter 05
00:34:42.371                : en:Chapter 06
00:42:41.934                : en:Chapter 07
00:52:19.678                : en:Chapter 08
01:01:50.081                : en:Chapter 09
01:13:45.462                : en:Chapter 10
01:25:48.560                : en:Chapter 11
01:35:01.278                : en:Chapter 12

pb.wtf



Скачать Кто там через торрент http://i74.fastpic.ru/big/2016/0125/87/76dd9e988e015f5255b0ccda58205287.png Скачать фильм Кто там через торрент бесплантно в хорошем качестве Описание: Отправив семью за город, архитектор Эван остается на выходных дома один доделывать срочный проект.К нему стучатся две милые ... 7.3 10 10
Info! Золотая раздача, скачанное не засчитывается.
Торрент: Зарегистрирован [2016-01-25 08:51] · скачан: 742 раз
Статус: √ проверено
Размер: 2.14 GB
Как cкачать? Как скачать Кто там через торрент | qTorrent

% Раздел Тема Автор DL S | L
Фильмы 2015 [DVDrip, WEB-DLRip, HDrip] [ 2.02 GB ] Кто там / Knock Knock [2015 Чили BDRip-AVC] - ExKinoRay Enigma2010 Скачать
2 | 0
Фильмы 2015 [DVDrip, WEB-DLRip, HDrip] [ 2.14 GB ] Кто там / Knock Knock [2015 Чили BDRip-AVC от sokol_ok] Dub sokol_ok Скачать
2 | 0
Фильмы 2015 [DVDrip, WEB-DLRip, HDrip] [ 1.41 GB ] Кто там / Knock Knock [2015 Чили BDRip-AVC от sokol_ok] Dub sokol_ok Скачать
4 | 0
Фильмы (Blu-ray, BD-Remux, HDDVD) [ 28.03 GB ] Кто там? / Knock Knock [2015 Чили BDRemux 1080p от HDClub DUB ] Ворон Скачать
1 | 0
Фильмы 2015 [DVDrip, WEB-DLRip, HDrip] [ 1.42 GB ] Кто там? / Knock Knock [2015 Чили BDRip ] Twi7ter Скачать
1 | 0
Фильмы с авторской озвучкой [ 1.37 GB ] Кто там / Knock Knock [2015 HDRip Авторский [М.Яроцкий] MihailHD Скачать
1 | 0
Фильмы 2015 [DVDrip, WEB-DLRip, HDrip] [ 1.46 GB ] Кто там / Knock Knock [2015 HDRip / ] MihailHD Скачать
1 | 0

28-11-2019 20:33  

Отключить всю рекламу на сайте

25-01-2016 09:27 Кто там Скачать торрент  

Ну теперь и глянем,спасибоpb.wtf



26-01-2016 06:50 Кто там Скачать торрент  

Фильм полное г..... Не тратьте время. Автору спасибо за труды.pb.wtf



26-01-2016 20:39 Кто там Скачать торрент  

Да уж, переиграно конечно..pb.wtf



28-01-2016 14:48 Кто там Скачать торрент  

w.a.s.p. писал(а):

Да уж, переиграно конечно..

Да неее, просто все привыкли к шаблонному голливудскому кино, а это сделано испаноговорящими людьми))) Фильм очень понравился, а может просто из своей жизни вспомнились ситуации, когда бабы вели себя отвратительно! Советую...pb.wtf



01-02-2016 08:10 Кто там Скачать торрент  

Чуть с женой не разругался )pb.wtf



    Дорогой пользователь! Огромная просьба, поблагодарите релизера, оцените раздачу и оставьте свои комментарий, если Вы скачали Кто там через торрент бесплатно! Внесите свою лепту в развитие PiratBit!
    Комментировать посты могут только пользователи прошедшие не сложную регистрацию
    Показать сообщения:    

    Кто там через торрент
    Скачать бесплатно Кто там
    Кто там скачать торрент
    Кто там смотреть онлайн
    Cкачать фильм Кто там бесплатно
    Кто там скачать торрент в хорошем качестве
    Кто там смотреть онлайн бесплатно в хорошем качестве


    Вы не можете начинать темы
    Вы не можете отвечать на сообщения
    Вы не можете редактировать свои сообщения
    Вы не можете удалять свои сообщения
    Вы не можете голосовать в опросах
    Вы не можете прикреплять файлы к сообщениям
    Вы можете скачивать файлы