новый адрес пиратбит piratbit
Мега распродажа FORZA HORIZON 4 ULTIMATE+ВСЕ DLC+ОНЛАЙН всего за 499р. 349 руб. (супер цена). Внимание количество ограничено!!!

iTunes

1+1

iTunes

мы

iTunes

1

iTunes

Чернобыль

iTunes

Ральф против интернета

Лицензия

ПШазам

Лицензия

Игра престолов

Лицензия

30
pack

ВАЖНО

!!Акция!!

Alien_RageХит недели

RePack

Resident Evil 21

ИГРА 18+

pack

RePack

Metro:Exodus

!!Акция!!

Alien_Rage

RePack

fifa19

RePack

Assassins Creed: Odyssey

RePack

NEED FOR SPEED™ PAYBACK

3 сезон

9 сезон

Бесстыжие 9 сезон

Все сериалы

все сериалы на PB.wtf

RePack

FAR CRY 5
Ребята, катастрофически не хватает 1900р. для оплаты серверов за Октябрь (всвязи с блокировками трафик упал в 3 раза), 1-2р., выручайте.
  

Возвращение Василия Бортникова (Всеволод Пудовкин) [1953, СССР, драма, SATRip от AVP Studio] pb.wtf

Возвращение Василия Бортникова через торрент pb.wtf

Размер: 1.46 GB | Добавлен: 3 года 9 мес. назад | Торрент скачан:17 раз
Скачать  

25-01-2016 09:51 Возвращение Василия Бортникова Скачать торрент  

Возвращение Василия Бортникова
Страна: СССР
Производство: Мосфильм

Жанр: драма
Год выпуска: 1953
Продолжительность: 01:42:03

Перевод: Не требуется
Cубтитры: нет
Оригинальная аудиодорожка: русский

Режиссер: Всеволод Пудовкин

В ролях:
Сергей Лукьянов, Наталья Медведева, Николай Тимофеев, Анатолий Чемодуров, Инна Макарова, Анатолий Игнатьев, Всеволод Санаев, Клара Лучко, Галина Степанова, Нонна Мордюкова, Николай Добронравов, Николай Шамин, Андрей Петров, Мария Яроцкая, Владимир Колчин, Данута Столярская, Василий Харлашин, Петр Кирюткин...
Полный список актёров

Описание:
По роману Галины Николаевой "Жатва".
После контузии, пролежав несколько лет в госпитале, Василий (Серегей Лукьянов) вернулся в колхоз, где прежде был председателем. Считая его погибшим, жена переживала потерю мужа, однако тяжелые годы и долгая искренняя любовь механика Мохова стали оправданием для нее, когда она решила привести нового мужа в свой дом... Возвращение Василия было трудным для всех. Вновь избранный председателем колхоза, он целиком отдал себя труду... А потом состоялось возвращение и в родную семью.
Последняя работа выдающегося советского режиссера Всеволода Пудовкина.
Первая роль в кино Дануты Столярской (Граня).
Лидер проката (1953, 16 место) - 20.9 млн. зрителей.
Премия "Золотой колос" на МКФ сельскохозяйственных фильмов в Риме-53.


Источник: DVB
Качество видео: SATRip
Формат видео: AVI

Видео: 688x512 (4:3), 25 fps, XviD ~ 1846 kbps avg, 0.210 bit/pixel
Аудио: 48 kHz, Dolby Digital AC3 2.0, 192 kbps

Раздача от:
Общее
Полное имя : Vozvrashhenie.Vasiliya.Bortnikova.1953.SATRip_[New-team]_by_AVP_Studio.avi
Формат : AVI
Формат/Информация : Audio Video Interleave
Размер файла : 1,46 Гбайт
Продолжительность : 1 ч. 42 м.
Общий поток : 2047 Кбит/сек
Программа кодирования : VirtualDubMod 1.5.10.3 | www.virtualdub-fr.org || (build 2550/release)
Библиотека кодирования : VirtualDubMod build 2550/release

Видео
Идентификатор : 0
Формат : MPEG-4 Visual
Профиль формата : Advanced Simple@L5
Параметр BVOP формата : 1
Параметр QPel формата : Нет
Параметр GMC формата : Без точки перехода
Параметр матрицы формата : Выборочная
Идентификатор кодека : XVID
Идентификатор кодека/Подсказка : XviD
Продолжительность : 1 ч. 42 м.
Битрейт : 1846 Кбит/сек
Ширина : 688 пикселей
Высота : 512 пикселей
Соотношение сторон : 4:3
Частота кадров : 25,000 кадров/сек
Цветовое пространство : YUV
Субдискретизация насыщенности : 4:2:0
Битовая глубина : 8 бит
Тип развёртки : Прогрессивная
Метод сжатия : С потерями
Бит/(Пиксели*Кадры) : 0.210
Размер потока : 1,32 Гбайт (90%)
Библиотека кодирования : XviD 1.2.1 (UTC 2008-12-04)

Аудио
Идентификатор : 1
Формат : AC-3
Формат/Информация : Audio Coding 3
Расширение режима : CM (complete main)
Параметр Endianness формата : Big
Идентификатор кодека : 2000
Продолжительность : 1 ч. 42 м.
Вид битрейта : Постоянный
Битрейт : 192 Кбит/сек
Каналы : 2 канала
Расположение каналов : Front: L R
Частота : 48,0 КГц
Частота кадров : 31,250 кадров/сек (1536 spf)
Метод сжатия : С потерями
Размер потока : 140 Мбайт (9%)
Выравнивание : Разделение по промежуткам
Продолжительность промежутка : 40 мс. (1,00 видеокадр)
Время предзагрузки промежутка : 500 мс
pb.wtf



Скачать Возвращение Василия Бортникова через торрент http://s013.radikal.ru/i323/1602/25/4729d68fcc92.png Скачать фильм Возвращение Василия Бортникова через торрент бесплантно в хорошем качестве Описание:По роману Галины Николаевой "Жатва".После контузии, пролежав несколько лет в госпитале, Василий (Серегей Лукьянов) вернулся в ... 10 10 2
Info! Золотая раздача, скачанное не засчитывается.
Торрент: Зарегистрирован [2016-01-25 09:51] · скачан: 17 раз
Статус: √ проверено
Размер: 1.46 GB
Как cкачать? Как скачать Возвращение Василия Бортникова через торрент | qTorrent

% Раздел Тема Автор DL S | L
Кино СССР [ 1.46 GB ] Возвращение Василия Бортникова [1953 СССР SATRip-AVC от AVP Studio] AVP Studio Скачать
1 | 0
Кино СССР [ 745 MB ] Возвращение Василия Бортникова [1953 СССР SATRip от AVP Studio] AVP Studio Скачать
1 | 0


>> Регистрируемся здесь <<






Отзывы и комментарии о схеме читаем и пишем здесь: ---> Отзывы и комментарии о схеме

Новые благодарочки в телеграм довольных пользователей:
скриншот   скриншот   скриншот   скриншот   скриншот
    Дорогой пользователь! Огромная просьба, поблагодарите релизера, оцените раздачу и оставьте свои комментарий, если Вы скачали Возвращение Василия Бортникова через торрент бесплатно! Внесите свою лепту в развитие PiratBit!
    Комментировать посты могут только пользователи прошедшие не сложную регистрацию
    Показать сообщения:    

    Возвращение Василия Бортникова через торрент
    Скачать бесплатно Возвращение Василия Бортникова
    Возвращение Василия Бортникова скачать торрент
    Возвращение Василия Бортникова смотреть онлайн
    Cкачать фильм Возвращение Василия Бортникова бесплатно
    Возвращение Василия Бортникова скачать торрент в хорошем качестве
    Возвращение Василия Бортникова смотреть онлайн бесплатно в хорошем качестве


    Вы не можете начинать темы
    Вы не можете отвечать на сообщения
    Вы не можете редактировать свои сообщения
    Вы не можете удалять свои сообщения
    Вы не можете голосовать в опросах
    Вы не можете прикреплять файлы к сообщениям
    Вы можете скачивать файлы