Всегда рабочее зеркало без VPN и Proxy просто перед .vidak.icu напиши любое слово или цифру, Пример http://8jap.vidak.icu

MVO

MVO

1 сезон

1

1 сезон

iTunes

1 сезон

13

1 сезон

Deluxe

pack

Рекомендуем

Repack

30

ВАЖНО

RePack

MK11

RePack

jed

RePack

fifa19

RePack

RDR2

RePack

NEED FOR SPEED™ PAYBACK

Кинопоиск HD

6 сезон

 Острые козырьки 6 сезон

Все сериалы

все сериалы на PB.wtf

RePack

FAR CRY 5
  
Magnet ссылка

5 сантиметров в секунду / Byousoku 5 Centimeter / 5 Centimeters per Second (Макото Синкай ) [2007, Романтика, драма, аниме, BDRip-AVC от _denis_100 / NNNB] Дублированный pb.wtf

5 сантиметров в секунду через торрент pb.wtf

Размер: 1.45 GB | Добавлен: 6 лет 6 мес. назад | Торрент скачан:208 раз
Смотреть онлайн 5 сантиметров в секунду | Скачать    Ребята, помогите собрать деньги на оплату серверов!!!

25-01-2016 15:05 5 сантиметров в секунду Скачать торрент  

5 сантиметров в секунду / Byousoku 5 Centimeter / 5 Centimeters per Second
«Цепь историй об их отдаленности»


Год выпуска: 2007
Страна: Япония
Жанр: Романтика, драма, аниме
Продолжительность: 01:03:27
Перевод: Дублированный
Субтитры: русские (forced), русские (forced.songs), русские, английские
Режиссер: Макото Синкай
В ролях: Кэндзи Мидзухаси , Ёсими Кондо , Сатоми Ханамура , Аяка Оноэ , Риса Мидзуно , Юка Тэрадзаки , Юко Накамура , Масами Ивасаки , Рэй Кондо , Хироси Симодзаки , Такахиро Хирано , Акира Накагава
Описание:
Окончание начальной школы становится для Такаки и его подруги Акари громадным разочарованием: из-за переезда родителей приходится распрощаться с планами на поступление в одну и ту же среднюю школу. Десятки километров - гигантское расстояние для ребенка и совсем небольшое - для взрослого… но умение преодолевать расстояния не всегда помогает преодолеть растущую пропасть между людьми.

Качество: BDRip-AVC
Контейнер (Расширение): MKV
Видео: 1024x574, 2400 Кбит/сек, 23,976 кадр/сек, 0,170 Бит/[Пиксели*Кадры]
Аудио №1: русский / AC3 / 5.1 / 48 kHz / 448 kbps / 16 bit |Дублированный|
Аудио №2: английский / AC3 / 5.1 / 48 kHz / 448 kbps / 16 bit
Навигация по главам(Чаптеры): естьАвтор рипа: Сообщество:

Код:

Format                                   : Matroska
Format version                           : Version 2
File size                                : 1.45 GiB
Duration                                 : 1h 3mn
Overall bit rate                         : 3 264 Kbps
Movie name                               : 5 Centimeters per Second.(2007).BDRip-AVC.[denis100]
Encoded date                             : UTC 2016-01-25 15:00:45
Writing application                      : mkvmerge v5.8.0 ('No Sleep / Pillow') built on Sep  2 2012 15:37:04
Writing library                          : libebml v1.2.3 + libmatroska v1.3.0

Video
ID                                       : 1
Format                                   : AVC
Format/Info                              : Advanced Video Codec
Format profile                           : [email protected]
Format settings, CABAC                   : Yes
Format settings, ReFrames                : 11 frames
Codec ID                                 : V_MPEG4/ISO/AVC
Duration                                 : 1h 3mn
Bit rate                                 : 2 400 Kbps
Width                                    : 1 024 pixels
Height                                   : 574 pixels
Display aspect ratio                     : 16:9
Frame rate                               : 23.976 fps
Color space                              : YUV
Chroma subsampling                       : 4:2:0
Bit depth                                : 8 bits
Scan type                                : Progressive
Bits/(Pixel*Frame)                       : 0.170
Stream size                              : 1.02 GiB (71%)
Title                                    : 5 Centimeters per Second.(2007).BDRip-AVC.[denis100]
Writing library                          : x264 core 148 r2638 7599210
Encoding settings                        : cabac=1 / ref=11 / deblock=1:0:0 / analyse=0x3:0x133 / me=umh / subme=11 / psy=1 / psy_rd=1.00:0.00 / mixed_ref=1 / me_range=32 / chroma_me=1 / trellis=2 / 8x8dct=1 / cqm=0 / deadzone=21,11 / fast_pskip=0 / chroma_qp_offset=-2 / threads=6 / lookahead_threads=1 / sliced_threads=0 / nr=0 / decimate=1 / interlaced=0 / bluray_compat=0 / constrained_intra=0 / bframes=12 / b_pyramid=2 / b_adapt=2 / b_bias=0 / direct=3 / weightb=1 / open_gop=0 / weightp=2 / keyint=240 / keyint_min=23 / scenecut=40 / intra_refresh=0 / rc=2pass / mbtree=0 / bitrate=2400 / ratetol=1.0 / qcomp=0.60 / qpmin=0 / qpmax=69 / qpstep=4 / cplxblur=20.0 / qblur=0.5 / ip_ratio=1.40 / pb_ratio=1.30 / aq=1:1.00
Language                                 : English
Default                                  : Yes
Forced                                   : No

Audio #1
ID                                       : 2
Format                                   : AC-3
Format/Info                              : Audio Coding 3
Mode extension                           : CM (complete main)
Codec ID                                 : A_AC3
Duration                                 : 1h 3mn
Bit rate mode                            : Constant
Bit rate                                 : 448 Kbps
Channel(s)                               : 6 channels
Channel positions                        : Front: L C R, Side: L R, LFE
Sampling rate                            : 48.0 KHz
Bit depth                                : 16 bits
Compression mode                         : Lossy
Stream size                              : 203 MiB (14%)
Title                                    : Dub
Language                                 : Russian
Default                                  : Yes
Forced                                   : No

Audio #2
ID                                       : 3
Format                                   : AC-3
Format/Info                              : Audio Coding 3
Mode extension                           : CM (complete main)
Codec ID                                 : A_AC3
Duration                                 : 1h 3mn
Bit rate mode                            : Constant
Bit rate                                 : 448 Kbps
Channel(s)                               : 6 channels
Channel positions                        : Front: L C R, Side: L R, LFE
Sampling rate                            : 48.0 KHz
Bit depth                                : 16 bits
Compression mode                         : Lossy
Stream size                              : 203 MiB (14%)
Title                                    : Eng
Language                                 : English
Default                                  : No
Forced                                   : No

Text #1
ID                                       : 4
Format                                   : UTF-8
Codec ID                                 : S_TEXT/UTF8
Codec ID/Info                            : UTF-8 Plain Text
Title                                    : forced
Language                                 : Russian
Default                                  : Yes
Forced                                   : No

Text #2
ID                                       : 5
Format                                   : UTF-8
Codec ID                                 : S_TEXT/UTF8
Codec ID/Info                            : UTF-8 Plain Text
Title                                    : forced.songs
Language                                 : Russian
Default                                  : No
Forced                                   : No

Text #3
ID                                       : 6
Format                                   : UTF-8
Codec ID                                 : S_TEXT/UTF8
Codec ID/Info                            : UTF-8 Plain Text
Language                                 : Russian
Default                                  : No
Forced                                   : No

Text #4
ID                                       : 7
Format                                   : UTF-8
Codec ID                                 : S_TEXT/UTF8
Codec ID/Info                            : UTF-8 Plain Text
Language                                 : English
Default                                  : No
Forced                                   : No

Menu
00:00:07.100                             : :Story 1
00:25:55.280                             : :Story 2
00:48:31.590                             : :Story 3

pb.wtf



Скачать 5 сантиметров в секунду через торрент http://i65.fastpic.ru/big/2016/0125/d0/769247dfadbd8e0bad4ecf78581db5d0.png Скачать, смотреть онлайн 5 сантиметров в секунду бесплантно в хорошем качестве Описание:Окончание начальной школы становится для Такаки и его подруги Акари громадным разочарованием: из-за переезда родителей приходится ... 10 10 6
Info! Золотая раздача, скачанное не засчитывается.
Торрент: Зарегистрирован [2016-01-25 15:05] · скачан: 208 раз
Статус: √ проверено
Размер: 1.45 GB
Как cкачать? Как скачать 5 сантиметров в секунду через торрент | UTorrent

28-11-2019 20:33  

Отключить вcю реклaмy на сайте

    Дорогой пользователь! Огромная просьба, поблагодарите релизера, оцените раздачу и оставьте свои комментарий, если Вы скачали 5 сантиметров в секунду через торрент бесплатно!
    Комментировать посты могут только пользователи прошедшие не сложную регистрацию
    Показать сообщения:    

    5 сантиметров в секунду через торрент
    Скачать бесплатно 5 сантиметров в секунду
    5 сантиметров в секунду скачать торрент
    5 сантиметров в секунду смотреть онлайн
    Cкачать фильм 5 сантиметров в секунду бесплатно
    5 сантиметров в секунду скачать торрент в хорошем качестве
    5 сантиметров в секунду смотреть онлайн бесплатно в хорошем качестве


    Вы не можете начинать темы
    Вы не можете отвечать на сообщения
    Вы не можете редактировать свои сообщения
    Вы не можете удалять свои сообщения
    Вы не можете голосовать в опросах
    Вы не можете прикреплять файлы к сообщениям
    Вы можете скачивать файлы